Торренты   
 
 

 

Live Diversity. The Diversitoys Tour 3D [2010 г, 1080p, Anamorph SideBySide]

Рейтинг 3D:
1 голосов
9.0
Рейтинг фильма:
Пока никто не голосовал
 
Вы должны быть авторизированы,
чтобы ставить оценки


Live Diversity. The Diversitoys Tour 3D
Год выпуска: 2010
Страна: Великобритания
Жанр: Документальный, Музыка, Танцы
Продолжительность: 00:43:24
Язык: Английский
Перевод: Отсутствует
В ролях: Diversity, The Dolls, The Contortionist
Описание: Шоу стрит-дэнс групп Diversity (снимались в фильме "Уличные танцы") и The Dolls, с небольшими "лирическими" отступлениями.
Доп. информация: Рип не мой. Перевод почти не требуется.
Формат: MKV
Видео: AVC / 1920x1080p / 25 fps / 5763 Kbps
Аудио [eng]: AC3 / 2 ch / 192 Kbps / 48 KHz
Формат 3d: Anamorph SideBySide
Порядок ракурсов: Параллельная пара

MediaInfo

General
UniqueID : 218391485036417931023880307214141745897 (0xA44CAB8941158FC88646EFD112FDEAE9)
Complete name : F:\Downloads\Live Diversity. The Diversitoys Tour 3D.1080p.mkv
Format : Matroska
File size : 1.84 GiB
Duration : 43mn 24s
Overall bit rate : 6 076 Kbps
Encoded date : UTC 2011-01-02 08:35:43
Writing application : mkvmerge v4.3.0 ('Escape from the Island') built on Sep 5 2010 10:30:51
Writing library : libebml v1.0.0 + libmatroska v1.0.0
Video
ID : 1
Format : AVC
Format/Info : Advanced Video Codec
Format profile : High@L4.0
Format settings, CABAC : Yes
Format settings, ReFrames : 4 frames
Codec ID : V_MPEG4/ISO/AVC
Duration : 43mn 24s
Bit rate : 5 763 Kbps
Width : 1 920 pixels
Height : 1 080 pixels
Display aspect ratio : 16:9
Frame rate : 25.000 fps
Color space : YUV
Chroma subsampling : 4:2:0
Bit depth : 8 bits
Scan type : Progressive
Bits/(Pixel*Frame) : 0.111
Stream size : 1.75 GiB (95%)
Writing library : x264 core 105 r1724 b02df7b
Encoding settings : cabac=1 / ref=3 / deblock=1:0:0 / analyse=0x3:0x113 / me=hex / subme=7 / psy=1 / psy_rd=1.00:0.00 / mixed_ref=1 / me_range=16 / chroma_me=1 / trellis=1 / 8x8dct=1 / cqm=0 / deadzone=21,11 / fast_pskip=1 / chroma_qp_offset=-2 / threads=3 / sliced_threads=0 / nr=0 / decimate=1 / interlaced=0 / constrained_intra=0 / bframes=3 / b_pyramid=2 / b_adapt=1 / b_bias=0 / direct=1 / weightb=1 / open_gop=0 / weightp=2 / keyint=250 / keyint_min=25 / scenecut=40 / intra_refresh=0 / rc_lookahead=40 / rc=crf / mbtree=1 / crf=23.0 / qcomp=0.60 / qpmin=10 / qpmax=51 / qpstep=4 / ip_ratio=1.40 / aq=1:1.00
Audio
ID : 2
Format : AC-3
Format/Info : Audio Coding 3
Mode extension : ME (music and effects)
Codec ID : A_AC3
Duration : 43mn 24s
Bit rate mode : Constant
Bit rate : 192 Kbps
Channel(s) : 2 channels
Channel positions : Front: L R
Sampling rate : 48.0 KHz
Bit depth : 16 bits
Compression mode : Lossy
Stream size : 59.6 MiB (3%)
Language : English

Скриншоты (превью с кликом)

Благодарности релизеру (6)

Торрент:

Статус:

Размер:

Зарегистрирован   [ 2011-01-14 15:30 ]

проверено

1.84 GB