Торренты   
 
 


История игрушек 1 3D / Toy Story 1 3D (Джон Лассетер) [1995 г., Anamorph SideBySide]

Рейтинг 3D:
Пока никто не голосовал
Рейтинг фильма:
Пока никто не голосовал
 
Вы должны быть авторизированы,
чтобы ставить оценки


История игрушек 1 3D / Toy Story 1 3D
Год выпуска: 1995
Страна: США
Жанр: комедия, приключения, семейный, мультфильм
Продолжительность: 01:17:29
Перевод: Профессиональный (полное дублирование)
Режиссер: Джон Лассетер
Роли озвучивали: Том Хэнкс, Тим Аллен, Дон Риклз, Джим Варни, Уоллес Шоун, Джон Ратценбергер, Энни Поттс, Джон Моррис, Эрик Фон Деттен, Лори Меткаф и др.
Описание: Каждый ребенок верит, что когда он оставляет свои игрушки одни, они начинают заниматься своими делами. Этот мультипликационный фильм позволяет убедиться им в своей правоте.
Основная идея фильма — каждая игрушка боится надоесть, стать забытой, замененной другой, так как весь смысл их существования доставлять счастье своим хозяевам.
Формат 3d: Anamorph SideBySide (TV-Rip)
Порядок ракурсов: Параллельная пара

MediaInfo

General
Format : Matroska
File size : 6.21 GiB
Duration : 1h 17mn
Overall bit rate : 11.4 Mbps
Encoded date : UTC 2011-01-14 18:59:31
Writing application : mkvmerge v3.3.0 ('Language') built on Mar 24 2010 14:59:24
Writing library : libebml v0.8.0 + libmatroska v0.9.0
Video
ID : 1
Format : AVC
Format/Info : Advanced Video Codec
Format profile : Main@L4.0
Format settings, CABAC : Yes
Format settings, ReFrames : 4 frames
Format settings, GOP : M=1, N=24
Codec ID : V_MPEG4/ISO/AVC
Duration : 1h 17mn
Bit rate : 10.8 Mbps
Width : 1 920 pixels
Height : 1 080 pixels
Display aspect ratio : 16:9
Frame rate : 25.000 fps
Color space : YUV
Chroma subsampling : 4:2:0
Bit depth : 8 bits
Scan type : Interlaced
Scan order : Bottom Field First
Bits/(Pixel*Frame) : 0.207
Stream size : 5.84 GiB (94%)
Title : PID 514
Color primaries : BT.709-5, BT.1361, IEC 61966-2-4, SMPTE RP177
Transfer characteristics : BT.709-5, BT.1361
Matrix coefficients : BT.709-5, BT.1361, IEC 61966-2-4 709, SMPTE RP177
Audio
ID : 2
Format : AC-3
Format/Info : Audio Coding 3
Mode extension : CM (complete main)
Codec ID : A_AC3
Duration : 1h 17mn
Bit rate mode : Constant
Bit rate : 448 Kbps
Channel(s) : 6 channels
Channel positions : Front: L C R, Side: L R, LFE
Sampling rate : 48.0 KHz
Bit depth : 16 bits
Video delay : 1s 500ms
Stream size : 249 MiB (4%)

Скриншоты

Благодарности релизеру (0)

Торрент:

Статус:

Размер:

Зарегистрирован   [ 2011-01-14 23:13 ]

проверено

6.21 GB

 
Комментарии:

1, 2, 3  След.






Спасибо, Мастер! Я не увидел, там 1080i или р ? (Наверное, всё-таки i, раз ТВ-рип)
 

tom505
Scan type : Interlaced
boss-master
Пасибо!
 

первая история не была в 3D! это переделка из 2D.... скрины в 3D не впечатляют объемом и цветопередачей!
 

Простите, а кто раздавать будет?
 

Спасибо))
Так на телике работать будет?)
 

1 октября 2009 года был осуществлён повторный релиз 3D версии фильма в кинотеатрах, оборудованных системой трёхмерной демонстрации. Так что этот мульт вышел в 3Д. Видимо исходники остались, а прорендерить заново два ракурса для компании не проблема
 

спасибо большое!!!
 

первая история не была в 3D! это переделка из 2D.... скрины в 3D не впечатляют объемом и цветопередачей!
не впечатляют- не качай!
 

да стереобаза небольшая и вылетов нет, но пробовал методом Dag13 в монорежиме менять ракурсы - вроде 3Д, а не псевдо
 

Как звук лег ? без рассинхрона ? А 1 Гб потерялся из-за того что .mkv а не .ts ?
 

звук лег нормально, 1 гб потерялся во первых из-за того, что вырезал несколько минут + выкинул 2 аудио дорожки и воткнул 1 новую ну и может при упаковке что-то сжалось
 

Для тврипа качество отменное, интерлейса на скринах незаметно. А то что база маленькая, и вылетов нет, так ведь и сценарий писался не под стерео. Спасибо им и на этом. И boss-master спасибо, давно ничего новенького не было.
 

Практически у всех мультфильмов стереобаза небольшая потому что они делаются в первую очередь для детей. У детей расстояние между глазами меньше и, если фильм с большой базой растянуть проектором на большой экран, то ребенок просто не сможет его смотреть.
первая история не была в 3D! это переделка из 2D.... скрины в 3D не впечатляют объемом и цветопередачей!
Первый Шрэк тоже не был в 3Д, но при этом 3Д версия имеет отличное стерео. Любой мультфильм основанный на компьютерной графике легко переделать в 3Д, я думаю со многими кассовыми мультами так и сделают.
 

Для тврипа качество отменное, интерлейса на скринах незаметно. А то что база маленькая, и вылетов нет, так ведь и сценарий писался не под стерео. Спасибо им и на этом. И boss-master спасибо, давно ничего новенького не было.
Согласен - сценарий писался не под стерео и глубина нормальная ! А по поводу новизны - у меня анаглифы всех 3-х частей на ДВД уже месяца 4 валяются !
 

а там на http://3dblurayiso.com/forums/forum.php есть и 2 и 3 части, только в TS...)))
 

Ждём новых релизов с русской дорогой от наших уважаемых прорелизеров=))
 

TheJoker
Если анаглифы то могут быть фейки
 

официально эта часть,так же как и вторая не выходила в 3д на блюреях.
TV-Rip-это интересно по какому тв каналу у нас 3д показывают.
Color primaries : BT.709-5, BT.1361, IEC 61966-2-4, SMPTE RP177
Transfer characteristics : BT.709-5, BT.1361
Matrix coefficients : BT.709-5, BT.1361, IEC 61966-2-4 709, SMPTE RP177
такие параметры обычно бывают когда пережимают файл силами видеокарты радеон.
 

И чего вы прицепились к релизеру!
boss-master
Укажите источник. Пусть вопросы туда адресуют!
 

официально эта часть,так же как и вторая не выходила в 3д на блюреях.
TV-Rip-это интересно по какому тв каналу у нас 3д показывают.
Это не у вас и не у нас, это у них показывают, кроме России есть еще много других стран.
 

Страница 1 из 3

1, 2, 3  След.