Торренты   
 
 

 

Дельфины и киты 3Д / Dolphins and Whales 3D: Tribes of the Ocean (Жан-Жак Мантелло / Jean-Jacques Mantello ) [2008 г., Документальный,720p, BDrip, OverUnder]

Рейтинг 3D:
1 голосов
10
Рейтинг фильма:
1 голосов
10
 
Вы должны быть авторизированы,
чтобы ставить оценки


Дельфины и киты 3Д / Dolphins and Whales 3D: Tribes of the Ocean -Год выпуска: 2008
Страна: Великобритания
Жанр: Документальный
Продолжительность: 0:42:26
Перевод: Профессиональный одноголосый (дублированный)
Субтитры: нет-Режиссер: Жан-Жак Мантелло / Jean-Jacques Mantello
Описание: Этот великолепный и зрелищный фильм в трехмерном изображении, снятый на коралловых рифах Багамских островов, перенесет вас в эти удивительные места: вы узнаете много интересных фактов о диких дельфинах и китах, способных к не простому общению и взаимодействию. Фильм ярко показывает жизнь этих изящных, величественных, но все же, подвергаемых опасности морских существ.
-
Доп. информация: Для просмотра понадобится стереоплеер, через него можно смотреть с любыми видами очков и стереомониторов. В Стереоскопик плеере в окне браузера поменять "тип файла" - "Все файлы" вместо "все поддерживаемые" (по умолчанию), иначе не увидит расширение MKV, потом Вид _ метод просмотра _ .... под свой тип очков или 3Д монитор.
Также возможен просмотр 2D версии на обычном плеере отрезав второй ракурс ffd фильтром
-Качество: 3D BDRip
Формат: MKV
Формат 3d: OverUnder / Вертикальная стереопара
Видео кодек: h264
Аудио кодек: DTS, AC3
Видео: MPEG4 Video (H264) 1280x1440 23.98fps 3898 Кбит/сек
Аудио 1: Rus AC3 48000Hz 6ch 448 Kbps 16 бит
Аудио: Eng DTS 48000Hz 6ch 2047 Кбит/сек / 1510 Кбит/сек 16 бит / 24 бит-

Скриншоты



Скриншоты сравнения

Скриншоты сделаны с помощью AvsP с обрезкой правого ракурса и бикубическим растяжением кадра

Кадр 1 BD3D

Кадр 1 Этот релиз

Кадр 2 BD3D

Кадр 2 Этот релиз

Кадр 3 BD3D

Кадр 3 Этот релиз

Медиа инфо

Общее
UniqueID/String : 194797550054068200011669922479557787647 (0x928CA4BABA5133F4B0EB40BF6F633FFF)
Полное имя : Дельфины_и_киты_OU_720p.mkv
Формат : Matroska
Размер файла : 1,93 Гбайт
Продолжительность : 42 м.
Общий поток : 6522 Кбит/сек
Дата кодирования : UTC 2011-01-15 18:44:14
Программа кодирования : mkvmerge v4.4.0 ('Die Wiederkehr') сборка от Oct 31 2010 21:52:48
Библиотека кодирования : libebml v1.0.0 + libmatroska v1.0.0
Видео
Идентификатор : 1
Формат : AVC
Формат/Информация : Advanced Video Codec
Профиль формата : High@L5.0
Параметр CABAC формата : Да
Параметр ReFrames формата : 7 кадры
Режим смешивания : Header stripping
Идентификатор кодека : V_MPEG4/ISO/AVC
Продолжительность : 42 м.
Битрейт : 3898 Кбит/сек
Ширина : 1280 пикс.
Высота : 1440 пикс.
Соотношение сторон : 0,889
Частота кадров : 23,976 кадр/сек
Цветовое пространство : YUV
Подвыборка цветности : 4:2:0
Битовая глубина : 8 бит
Тип развёртки : Прогрессивная
Бит/(Пиксели*Кадры) : 0.088
Размер потока : 1,16 Гбайт (60%)
Библиотека кодирования : x264 core 112 r1834 a51816a
Настройки программы : cabac=1 / ref=8 / deblock=1:3:3 / analyse=0x3:0x113 / me=umh / subme=8 / psy=1 / psy_rd=1.00:0.15 / mixed_ref=1 / me_range=16 / chroma_me=1 / trellis=1 / 8x8dct=1 / cqm=0 / deadzone=21,11 / fast_pskip=1 / chroma_qp_offset=-3 / threads=6 / sliced_threads=0 / nr=0 / decimate=1 / interlaced=0 / constrained_intra=0 / bframes=8 / b_pyramid=1 / b_adapt=2 / b_bias=0 / direct=3 / weightb=1 / open_gop=0 / weightp=2 / keyint=250 / keyint_min=23 / scenecut=40 / intra_refresh=0 / rc_lookahead=50 / rc=crf / mbtree=1 / crf=22.5 / qcomp=0.60 / qpmin=0 / qpmax=51 / qpstep=4 / ip_ratio=1.40 / aq=1:1.00
Основные цвета : BT.709-5, BT.1361, IEC 61966-2-4, SMPTE RP177
Характеристики трансфера : BT.709-5, BT.1361
Коэффициенты матрицы : BT.709-5, BT.1361, IEC 61966-2-4 709, SMPTE RP177
Аудио #1
Идентификатор : 2
Формат : AC-3
Формат/Информация : Audio Coding 3
Расширение режима : CM (complete main)
Режим смешивания : Header stripping
Идентификатор кодека : A_AC3
Продолжительность : 42 м.
Вид битрейта : Постоянный
Битрейт : 448 Кбит/сек
Канал(ы) : 6 канала(ов)
Расположение каналов : Front: L C R, Side: L R, LFE
Частота : 48,0 КГц
Битовая глубина : 16 бит
Метод сжатия : С потерями
Размер потока : 136 Мбайт (7%)
Язык : Russian
Аудио #2
Идентификатор : 3
Формат : DTS
Формат/Информация : Digital Theater Systems
Профиль формата : HRA / Core
Режим смешивания : Header stripping
Идентификатор кодека : A_DTS
Продолжительность : 42 м.
Вид битрейта : Постоянный
Битрейт : 2047 Кбит/сек / 1510 Кбит/сек
Канал(ы) : 6 канала(ов)
Расположение каналов : Front: L C R, Side: L R, LFE
Частота : 48,0 КГц
Битовая глубина : 16 бит / 24 бит
Метод сжатия : С потерями
Размер потока : 621 Мбайт (31%)
Язык : English
Меню
00:00:00.000 : :00:00:00.000
00:05:03.803 : :00:05:03.803
00:09:20.059 : :00:09:20.059
00:16:15.600 : :00:16:15.600
00:21:56.023 : :00:21:56.023
00:27:38.240 : :00:27:38.240
00:33:27.631 : :00:33:27.631
00:40:37.560 : :00:40:37.560

Лог кодирования

Благодарности релизеру (2)

Торрент:

Статус:

Размер:

Зарегистрирован   [ 2012-05-06 21:42 ]

проверено

1.93 GB