Торренты   
 
 


Music video in 3D [Anamorph SideBySide]

Рейтинг 3D:
Пока никто не голосовал
Рейтинг фильма:
Пока никто не голосовал
 
Вы должны быть авторизированы,
чтобы ставить оценки


Music video in 3D
Описание:
1)Were with you

MediaInfo

General
Format : MPEG-4
Format profile : Base Media / Version 2
Codec ID : mp42
File size : 70.0 MiB
Duration : 2mn 38s
Overall bit rate : 3 701 Kbps
ID : 2
Format : AVC
Format/Info : Advanced Video Codec
Format profile : High@L4.0
Format settings, CABAC : Yes
Format settings, ReFrames : 1 frame
Codec ID : avc1
Codec ID/Info : Advanced Video Coding
Duration : 2mn 38s
Bit rate mode : Variable
Bit rate : 3 576 Kbps
Maximum bit rate : 8 708 Kbps
Width : 1 920 pixels
Height : 1 080 pixels
Display aspect ratio : 16:9
Frame rate mode : Constant
Frame rate : 29.917 fps
Color space : YUV
Chroma subsampling : 4:2:0
Bit depth : 8 bits
Scan type : Progressive
Bits/(Pixel*Frame) : 0.058
Stream size : 67.7 MiB (97%)
Audio #1
ID : 1
Format : AAC
Format/Info : Advanced Audio Codec
Format version : Version 4
Format profile : LC
Codec ID : 40
Duration : 2mn 38s
Bit rate mode : Variable
Bit rate : 122 Kbps
Maximum bit rate : 236 Kbps
Channel(s) : 2 channels
Channel positions : Front: L R
Sampling rate : 44.1 KHz
Compression mode : Lossy
Stream size : 2.31 MiB (3%)
2)Bang

MediaInfo

General
Format : MPEG-4
Format profile : Base Media / Version 2
Codec ID : mp42
File size : 82.7 MiB
Duration : 3mn 10s
Overall bit rate : 3 649 Kbps
Video #2
ID : 2
Format : AVC
Format/Info : Advanced Video Codec
Format profile : High@L3.2
Format settings, CABAC : Yes
Format settings, ReFrames : 1 frame
Codec ID : avc1
Codec ID/Info : Advanced Video Coding
Duration : 3mn 10s
Bit rate mode : Variable
Bit rate : 3 520 Kbps
Maximum bit rate : 5 322 Kbps
Width : 1 920 pixels
Height : 540 pixels
Display aspect ratio : 3.556
Frame rate mode : Constant
Frame rate : 29.917 fps
Color space : YUV
Chroma subsampling : 4:2:0
Bit depth : 8 bits
Scan type : Progressive
Bits/(Pixel*Frame) : 0.113
Stream size : 79.8 MiB (96%)
Audio #1
ID : 1
Format : AAC
Format/Info : Advanced Audio Codec
Format version : Version 4
Format profile : LC
Codec ID : 40
Duration : 3mn 10s
Bit rate mode : Variable
Bit rate : 126 Kbps
Maximum bit rate : 177 Kbps
Channel(s) : 2 channels
Channel positions : Front: L R
Sampling rate : 44.1 KHz
Compression mode : Lossy
Stream size : 2.86 MiB (3%)
3)T-ara

MediaInfo

General
Format : MPEG-4
Format profile : Base Media / Version 2
Codec ID : mp42
File size : 179 MiB
Duration : 6mn 45s
Overall bit rate : 3 693 Kbps
Video #2
ID : 2
Format : AVC
Format/Info : Advanced Video Codec
Format profile : High@L4.0
Format settings, CABAC : Yes
Format settings, ReFrames : 1 frame
Codec ID : avc1
Codec ID/Info : Advanced Video Coding
Duration : 6mn 45s
Bit rate mode : Variable
Bit rate : 3 563 Kbps
Maximum bit rate : 8 600 Kbps
Width : 1 920 pixels
Height : 1 080 pixels
Display aspect ratio : 16:9
Frame rate mode : Constant
Frame rate : 29.970 fps
Color space : YUV
Chroma subsampling : 4:2:0
Bit depth : 8 bits
Scan type : Progressive
Bits/(Pixel*Frame) : 0.057
Stream size : 172 MiB (96%)
Audio #1
ID : 1
Format : AAC
Format/Info : Advanced Audio Codec
Format version : Version 4
Format profile : LC
Codec ID : 40
Duration : 6mn 45s
Bit rate mode : Variable
Bit rate : 127 Kbps
Maximum bit rate : 157 Kbps
Channel(s) : 2 channels
Channel positions : Front: L R
Sampling rate : 44.1 KHz
Compression mode : Lossy
Stream size : 6.17 MiB (3%)
Формат 3d: Anamorph SideBySide

Скриншоты

Were with you

Bang

T-ara
Благодарности релизеру (0)

Торрент:

Статус:

Размер:

Зарегистрирован   [ 2011-01-16 11:53 ]

проверено

331 MB