Торренты   
 
 


Альфа и Омега: Клыкастая братва 3D / Alpha and Omega 3D (Энтони Белл, Бен Глюк) [2010 г., Anamorph OverUnder]

Рейтинг 3D:
Пока никто не голосовал
Рейтинг фильма:
Пока никто не голосовал
 
Вы должны быть авторизированы,
чтобы ставить оценки


© Закрыто правообладателем
Год выпуска: 2010
Страна: США / Индия
Жанр: комедия, приключения, семейный, мультфильм
Продолжительность: 01:27:52
Перевод: Профессиональный (полное дублирование)
Режиссер: Энтони Белл, Бен Глюк
В ролях: Джастин Лонг, Хайден Панеттьери, Деннис Хоппер, Дэнни Гловер, Ларри Миллер, Эрик Прайс, Викки Льюис, Крис Кармак, Кевин Суссман, Брайан Донован
Описание: Омега — волк, далёкий от высших кругов. Он мечтает познакомиться с самой популярной волчицей в стае — Альфой. И вот судьба подбрасывает ему неплохой шанс — работники заповедника отправляют их в Айдахо. Волку и волчице придётся сплотиться, для того, чтобы вернуться на свою родину.
Формат 3d: Anamorph OverUnder (TV-Rip)

Скриншоты




MediaInfo

General
Format : Matroska
File size : 5.91 GiB
Duration : 1h 27mn
Overall bit rate : 9 626 Kbps
Encoded date : UTC 2011-01-17 17:49:09
Writing application : mkvmerge v3.3.0 ('Language') built on Mar 24 2010 14:59:24
Writing library : libebml v0.8.0 + libmatroska v0.9.0
Video
ID : 1
Format : AVC
Format/Info : Advanced Video Codec
Format profile : Main@L4.0
Format settings, CABAC : Yes
Format settings, ReFrames : 4 frames
Format settings, GOP : M=1, N=64
Codec ID : V_MPEG4/ISO/AVC
Duration : 1h 27mn
Bit rate mode : Variable
Bit rate : 8 795 Kbps
Maximum bit rate : 20.0 Mbps
Width : 1 920 pixels
Height : 1 080 pixels
Display aspect ratio : 16:9
Frame rate : 29.970 fps
Color space : YUV
Chroma subsampling : 4:2:0
Bit depth : 8 bits
Scan type : Interlaced
Scan order : Top Field First
Bits/(Pixel*Frame) : 0.142
Stream size : 5.40 GiB (91%)
Title : PID 4113
Color primaries : BT.709-5, BT.1361, IEC 61966-2-4, SMPTE RP177
Transfer characteristics : BT.709-5, BT.1361
Matrix coefficients : BT.709-5, BT.1361, IEC 61966-2-4 709, SMPTE RP177
Audio
ID : 2
Format : AC-3
Format/Info : Audio Coding 3
Mode extension : CM (complete main)
Codec ID : A_AC3
Duration : 1h 27mn
Bit rate mode : Constant
Bit rate : 640 Kbps
Channel(s) : 6 channels
Channel positions : Front: L C R, Side: L R, LFE
Sampling rate : 48.0 KHz
Bit depth : 16 bits
Video delay : 1s 500ms
Stream size : 403 MiB (7%)
Title : AC3 русский 640 kbps 6ch
Language : Russian
Благодарности релизеру (0)

Торрент:

Статус:

Размер:

Зарегистрирован   [ 2011-01-17 22:17 ]

© закрыто правообладателем

5.91 GB