Торренты   
 
 


Цыпленок Цыпа / Chicken Little (Марк Диндал / Mark Dindal) [2005 г., Anamorph OverUnder]

Цыпленок Цыпа / Chicken Little
Год выпуска: 2005
Страна: США (Walt Disney Pictures)
Жанр: Фантастика, комедия, приключения, семейный, мультфильм
Продолжительность: 01:21:14
Перевод: Профессиональный (полное дублирование)
Режиссер: Марк Диндал / Mark Dindal
В ролях: Зак Брафф, Гарри Маршалл, Don Knotts, Патрик Стюарт, Эми Седарис, Стив Занн, Джоан Кьюсак, Уоллес Шоун, Гарри Ширер
Описание: В основе фильма лежит старая басня про цыпленка, который вопил о том, что небеса падают на землю каждый раз, когда ему на голову падал желудь. Вот уже год, как Цыпленок пытается преодолеть позор своей ошибки (про падающие небеса) и жить как ни в чем не бывало.
Но — увы! — желающих дружить с неудачником немного, и поэтому в товарищах у него ходят такие же изгои, как и он сам. Но однажды действительно случается несчастье — пора бить тревогу! Но кто поверит Цыпленку, ведь он уже опростоволосился однажды…
Теперь будущее планеты зависит от скромных бойцов невидимого фронта: свиненка-акселерата, убогонькой уточки, золотой рыбки-мутанта и Цыпленка, с которым никто не хочет знаться…
Доп. информация: Роли дублировали:
Сергей Уманов, Адриан Ростовский, Валерий Кухарешин, Валерий Никитенко, Ксения Бржезовская ... и другие.
Формат 3d: Anamorph OverUnder
Видео: MPEG4 Video (H264) 1920x1080p 23.976fps 8763 Kbps

Скриншоты


me

Video
ID : 1
Format : AVC
Format/Info : Advanced Video Codec
Format profile : High@L4.0
Format settings, CABAC : Yes
Format settings, ReFrames : 3 frames
Format settings, GOP : N=1
Codec ID : V_MPEG4/ISO/AVC
Duration : 1h 8mn
Bit rate mode : Variable
Bit rate : 8 673 Kbps
Maximum bit rate : 25.0 Mbps
Width : 1 920 pixels
Height : 1 080 pixels
Display aspect ratio : 16:9
Frame rate : 23.976 fps
Color space : YUV
Chroma subsampling : 4:2:0
Bit depth : 8 bits
Scan type : Progressive
Bits/(Pixel*Frame) : 0.174
Stream size : 4.06 GiB (93%)
Writing library : x264 core 104 r1683 62997d6
Encoding settings : cabac=1 / ref=3 / deblock=1:0:0 / analyse=0x3:0x133 / me=umh / subme=7 / psy=1 / psy_rd=1.00:0.00 / mixed_ref=1 / me_range=16 / chroma_me=1 / trellis=1 / 8x8dct=1 / cqm=0 / deadzone=21,11 / fast_pskip=1 / chroma_qp_offset=-2 / threads=3 / sliced_threads=0 / nr=0 / decimate=1 / interlaced=0 / constrained_intra=0 / bframes=3 / b_pyramid=0 / b_adapt=1 / b_bias=0 / direct=1 / weightb=1 / open_gop=0 / weightp=2 / keyint=240 / keyint_min=24 / scenecut=40 / intra_refresh=0 / rc_lookahead=40 / rc=2pass / mbtree=1 / bitrate=8673 / ratetol=1.0 / qcomp=0.60 / qpmin=10 / qpmax=51 / qpstep=4 / cplxblur=20.0 / qblur=0.5 / vbv_maxrate=25000 / vbv_bufsize=25000 / ip_ratio=1.40 / aq=1:1.00 / nal_hrd=vbr
Audio
ID : 2
Format : AC-3
Format/Info : Audio Coding 3
Mode extension : CM (complete main)
Codec ID : A_AC3
Duration : 1h 8mn
Bit rate mode : Constant
Bit rate : 448 Kbps
Channel(s) : 6 channels
Channel positions : Front: L C R, Side: L R, LFE
Sampling rate : 48.0 KHz
Bit depth : 16 bits
Stream size : 220 MiB (5%)
Chicken.torrent
Торрент: Не зарегистрирован

Скачать

22 KB

Добавлен: 2011-01-18 10:52
Скачано: 1754 раз  [ Список скачавших ]
   
Комментарии:





Восстановил поток из http://torrents3d.ru/viewtopic.php?t=918 до полного прогрессива рекомбинацией нужных полей и выкинул повторяющийся каждый пятый кадр 29,97->23,976
 

Восстановил поток из http://torrents3d.ru/viewtopic.php?p=13342#13342
Из чего?
 

Извиняюсь, подправил
 

О спасибо, а то я его именно из-за интерлейса не качал ))
 

neovad спасибо вам!!!
Извиняюсь за нескромный вопрос - neovad нет ли у вас возможности в ближайшем будущем, если есть время конечно, сделать точно такую же манипуляцию до прогрессива с Историей игрушек 1? http://torrents3d.ru/viewtopic.php?t=1028
С уважением.
 

Так там же нормальный 25 к/с по сути прогрессивный поток, хоть и стоит тэг Interlased - а как там реально храняться данные - два поля одного прогрессивного кадра в интерлейсном потоке или один прогрессивный кадр в прогрессивном потоке - какая разница ? - вы этого все равно не увидите - это влияет тока на качество упаковки при данном битрейте
Другое дело если при перемотке кратковременно квадраты и линии сыпет - так это из-за Haali media сплиттера - во всяком случае через DirectShow он ведет себя так. Переключите его на Gabest и все будет ОК
Хотя там почитал, что на некоторых телевизорах не пашет - так это из-за несовместимости 264 кодека со встроенным плейером - дело в том что на него нет четких профайлов и спецификаций - он свободный, не стандартизированный
Можете сделать avs скрипт с одной строчкой
DirectShowSource("Toy Story 3D.mkv",audio=false)
И перепаковать его хоть в VirtualDubMod
 

neovad
Ну и...??? 8 часов раздаётся, а у всех 0. Проблемы с инетом?
И МедиаИнфо было б не лишне.
 

neovad
Ну и...??? 8 часов раздаётся, а у всех 0. Проблемы с инетом?
И МедиаИнфо было б не лишне.
Часов в 8 начну раздавать
добавил me
 

ОК!
 

Блядство. Как это я не обратил внимания что продолжительность 1.08 вместо 1.21. Придется переделывать. И на старуху бывает проруха
 

neovad
А вы не вкурсе, где может использоваться такого типа интерлейс (для чего-то ведь он "изобретён" в фильтре стереоскопика)?
 

А почему всё-равно качается, если его закрыли?
 

Потому что с трекера не удалили.
 

Топик был перенесен из форума Фильмы HD в форум Архив

Zagruzin