Торренты   
 
 


Scan egyptian mummies [2009 г., SideBySide]

Рейтинг 3D:
Пока никто не голосовал
Рейтинг фильма:
Пока никто не голосовал
 
Вы должны быть авторизированы,
чтобы ставить оценки


Scan egyptian mummies
Год выпуска: 2009
Продолжительность: 8mn 49s
Описание:

MediaInfo

General
Format : MPEG-4
Format profile : Base Media / Version 2
Codec ID : mp42
File size : 229 MiB
Duration : 8mn 49s
Overall bit rate : 3 625 Kbps
Video #2
ID : 2
Format : AVC
Format/Info : Advanced Video Codec
Format profile : High@L3.2
Format settings, CABAC : Yes
Format settings, ReFrames : 3 frames
Codec ID : avc1
Codec ID/Info : Advanced Video Coding
Duration : 8mn 49s
Bit rate mode : Variable
Bit rate : 3 497 Kbps
Maximum bit rate : 6 843 Kbps
Width : 1 906 pixels
Height : 540 pixels
Display aspect ratio : 3.530
Frame rate mode : Constant
Frame rate : 24.000 fps
Color space : YUV
Chroma subsampling : 4:2:0
Bit depth : 8 bits
Scan type : Progressive
Bits/(Pixel*Frame) : 0.142
Stream size : 221 MiB (96%)
Audio #1
ID : 1
Format : AAC
Format/Info : Advanced Audio Codec
Format version : Version 4
Format profile : LC
Codec ID : 40
Duration : 8mn 49s
Bit rate mode : Variable
Bit rate : 125 Kbps
Maximum bit rate : 141 Kbps
Channel(s) : 2 channels
Channel positions : Front: L R
Sampling rate : 44.1 KHz
Compression mode : Lossy
Stream size : 7.92 MiB (3%)
Формат 3d: SideBySide

Скриншоты


Благодарности релизеру (0)

Торрент:

Статус:

Размер:

Зарегистрирован   [ 2011-01-18 19:08 ]

проверено

229 MB