Торренты   
 
 


Малефисента / Maleficent (Роберт Стромберг) [2014 г., Anamorph OverUnder]

Рейтинг 3D:
36 голосов
6.7
Рейтинг фильма:
33 голосов
7.5
 
Вы должны быть авторизированы,
чтобы ставить оценки




Малефисента / Maleficent
Год выпуска: 2014
Страна: США, Великобритания
Жанр: фэнтези, семейный, мелодрама, приключения
Продолжительность: 01:37:28
Перевод: Профессиональный (полное дублирование)
Режиссер: Роберт Стромберг
В ролях: Анджелина Джоли, Эль Фаннинг, Шарлто Копли, Лесли Мэнвилл, Имелда Стонтон, Джуно Темпл, Сэм Райли, Брентон Туэйтс, Кеннет Крэнэм, Сара Флинд
Описание: Юная волшебница Малефисента вела уединенную жизнь в зачарованном лесу, окруженная сказочными существами, но однажды все изменилось… В её мир вторглись люди, которые принесли с собой разрушение и хаос, и Малефисенте пришлось встать на защиту своих подданных, призвав на помощь могущественные тёмные силы. В пылу борьбы Малефисента наложила страшное заклятие на новорожденную дочь короля, прекрасную Аврору. Но, наблюдая за тем, как растет маленькая принцесса, Малефисента начинает сомневаться в правильности своего поступка — ведь, возможно, именно Аврора может вдохнуть новую жизнь в волшебное лесное царство.
Качество: BDrip
Контейнер: MKV
Формат 3D: Anamorph OverUnder / Вертикальная анаморфная стереопара
Порядок ракурсов: левый ракурс первый
Видео кодек: x264
Аудио кодек: AC-3
Видео: AVC, High@L4.1, 1920х1080, 23,976 кадра/сек, 7896 Кбит/сек
Аудио:
48 kHz, AC3 Dolby Digital, 5/1 ch, ~640.00 kbps avg |Russian| |Дубляж, CEE|
48 kHz, AC3 Dolby Digital, 5/1 ch, ~640.00 kbps avg |English|
Cубтитры: Русские, английские

Скриншоты

Media Info

Общее
Уникальный идентификатор : 200647746322944221607150781777641875763 (0x96F359ACB7CD81EABC5787476D2E2933)
Полное имя : H:\Source\Maleficent.3D.2014.BDrip.Half.OU.x264.AC3.(itsamna).mkv
Формат : Matroska
Версия формата : Version 4 / Version 2
Размер файла : 6,37 Гбайт
Продолжительность : 1 ч. 37 м.
Общий поток : 9363 Кбит/сек
Название фильма : Maleficent (2014) rip by itsamna aka StarStranger (release 3D-RuGroup)
Дата кодирования : UTC 2014-09-14 06:43:30
Программа кодирования : mkvmerge v6.8.0 ('Theme for Great Cities') 32bit built on Mar 2 2014 21:27:07
Библиотека кодирования : libebml v1.3.0 + libmatroska v1.4.1
Видео
Идентификатор : 1
Формат : AVC
Формат/Информация : Advanced Video Codec
Профиль формата : High@L4.1
Параметр CABAC формата : Да
Параметр ReFrames формата : 4 кадра
Идентификатор кодека : V_MPEG4/ISO/AVC
Продолжительность : 1 ч. 37 м.
Битрейт : 7896 Кбит/сек
Ширина : 1920 пикселей
Высота : 1080 пикселей
Соотношение сторон : 16:9
Режим частоты кадров : Постоянный
Частота кадров : 23,976 кадра/сек
Цветовое пространство : YUV
Субдискретизация насыщенности : 4:2:0
Битовая глубина : 8 бит
Тип развёртки : Прогрессивная
Бит/(Пиксели*Кадры) : 0.159
Размер потока : 5,38 Гбайт (84%)
Библиотека кодирования : x264 core 130 r2273 b3065e6
Настройки программы : cabac=1 / ref=4 / deblock=1:-3:-3 / analyse=0x3:0x133 / me=umh / subme=10 / psy=1 / psy_rd=1.00:0.15 / mixed_ref=1 / me_range=32 / chroma_me=1 / trellis=2 / 8x8dct=1 / cqm=0 / deadzone=21,11 / fast_pskip=0 / chroma_qp_offset=-3 / threads=12 / lookahead_threads=2 / sliced_threads=0 / nr=0 / decimate=1 / interlaced=0 / bluray_compat=0 / constrained_intra=0 / bframes=8 / b_pyramid=2 / b_adapt=2 / b_bias=0 / direct=3 / weightb=1 / open_gop=0 / weightp=2 / keyint=250 / keyint_min=23 / scenecut=40 / intra_refresh=0 / rc_lookahead=60 / rc=crf / mbtree=1 / crf=16.5 / qcomp=0.60 / qpmin=0 / qpmax=69 / qpstep=4 / vbv_maxrate=50000 / vbv_bufsize=62500 / crf_max=0.0 / nal_hrd=none / ip_ratio=1.40 / aq=1:0.90
Default : Да
Forced : Нет
Аудио #1
Идентификатор : 2
Формат : AC-3
Формат/Информация : Audio Coding 3
Расширение режима : CM (complete main)
Параметр Endianness формата : Big
Идентификатор кодека : A_AC3
Продолжительность : 1 ч. 37 м.
Вид битрейта : Постоянный
Битрейт : 640 Кбит/сек
Каналы : 6 каналов
Расположение каналов : Front: L C R, Side: L R, LFE
Частота : 48,0 КГц
Битовая глубина : 16 бит
Метод сжатия : С потерями
Размер потока : 446 Мбайт (7%)
Заголовок : Dub | DD 5.1 @ 640 kbps - Blu-Ray EUR
Язык : Russian
Default : Да
Forced : Нет
Аудио #2
Идентификатор : 3
Формат : AC-3
Формат/Информация : Audio Coding 3
Расширение режима : CM (complete main)
Параметр Endianness формата : Big
Идентификатор кодека : A_AC3
Продолжительность : 1 ч. 37 м.
Вид битрейта : Постоянный
Битрейт : 640 Кбит/сек
Каналы : 6 каналов
Расположение каналов : Front: L C R, Side: L R, LFE
Частота : 48,0 КГц
Битовая глубина : 16 бит
Метод сжатия : С потерями
Размер потока : 446 Мбайт (7%)
Заголовок : Original | DD 5.1 @ 640 kbps
Язык : English
Default : Нет
Forced : Нет
Текст #1
Идентификатор : 4
Формат : UTF-8
Идентификатор кодека : S_TEXT/UTF8
Идентификатор кодека/Информация : UTF-8 Plain Text
Язык : Russian
Default : Нет
Forced : Нет
Текст #2
Идентификатор : 5
Формат : UTF-8
Идентификатор кодека : S_TEXT/UTF8
Идентификатор кодека/Информация : UTF-8 Plain Text
Язык : English
Default : Нет
Forced : Нет
Текст #3
Идентификатор : 6
Формат : UTF-8
Идентификатор кодека : S_TEXT/UTF8
Идентификатор кодека/Информация : UTF-8 Plain Text
Язык : Russian
Default : Да
Forced : Нет
Меню
00:00:00.000 : en:(01)00:00:00:000
00:03:00.597 : en:(02)00:03:00:597
00:08:10.948 : en:(03)00:08:10:948
00:14:00.756 : en:(04)00:14:00:756
00:19:10.607 : en:(05)00:19:10:607
00:25:59.057 : en:(06)00:25:59:057
00:33:09.737 : en:(07)00:33:09:737
00:38:30.808 : en:(08)00:38:30:808
00:43:21.140 : en:(09)00:43:21:140
00:46:56.104 : en:(10)00:46:56:104
00:51:11.943 : en:(11)00:51:11:943
00:54:18.797 : en:(12)00:54:18:797
00:58:37.722 : en:(13)00:58:37:722
01:01:58.047 : en:(14)01:01:58:047
01:05:09.989 : en:(15)01:05:09:989
01:09:56.775 : en:(16)01:09:56:775
01:15:40.619 : en:(17)01:15:40:619
01:17:43.659 : en:(18)01:17:43:659
01:25:44.931 : en:(19)01:25:44:931
01:28:38.646 : en:(20)01:28:38:646
01:37:27.842 : en:(21)01:37:27:842
--Релиз группы:

Проверено на встроенном плейере ТВ LG 42LW4500
--
Благодарности релизеру (61)

Торрент:

Статус:

Размер:

Зарегистрирован   [ 2014-09-14 11:10 ]

проверено

6.37 GB

 
 Мнение о фильме (12)





Спасибо за фильм!Мне понравилось!Релизеру респект!!!!
 

Спасибо за фильм! всей семьёй смотрели
 

Интересная сказка.Ещё- ради любопытства посмотреть на тощую Джоли:).
 

вирус!!!!!!!!!!!!!!!!
 

вирус!!!!!!!!!!!!!!!!
Не может быть...
 

Нормальный семейный фильм! Спасибо!
 

Клевый фильм. Вот тока 3D никакое.
 

встаньте на раздачу плиз!!!!
 
Владиславчег Профиль 10-Окт-2014 14:21

Классный фильмец....красочный...и сентиментальный ))))....а 3д да почти никакой.
 

Когда от фильма чего-то ждешь, но не дожидаешься - никаких впечатлений не остаётся. Фильм проходной, посмотреть можно один раз, 3D плоское, непонятно есть ли оно вообще!
 

Для семейного норм!!! 3D не видел.
 

Понравилось, красивая сказка, хоть и простенькая, но с заложен смысл. Кстати, 3D в норме.