Торренты   
 
 

 

Пираньи 3D / Piranha 3D (Александр Ажа / Alexandre Aja) [2010 г., ужасы, боевик, триллер, 1080p, BDRip, Anamorph OverUnder ]

Рейтинг 3D:
1 голосов
8.0
Рейтинг фильма:
1 голосов
5.0
 
Вы должны быть авторизированы,
чтобы ставить оценки


Пираньи 3D / Piranha 3D - Год выпуска: 2010
Страна: США
Жанр: ужасы, боевик, триллер
Продолжительность: 01:28:21
Перевод: Профессиональный (дублированный)
Субтитры: Нет-Режиссер: Александр Ажа
В ролях: Ричард Дрейфусс, Винг Рэймс, Элизабет Шу, Кристофер Ллойд, Элай Рот, Джерри О`Коннелл, Стивен Р. МакКуин, Джессика Зор, Келли Брук, Райли Стил
Описание фильма: 20 тысяч подростков курортного городка у озера Виктория готовятся к празднованию ежегодного праздника начала лета. Но ночное землетрясение высвобождает сотни тысяч доисторических пираний прямо накануне торжества. Очаровательная шериф, ее подчиненные-полицейские и доктор Горден Рэйбэнкс решают сделать все, чтобы веселый праздник молодежи в озере не превратился в кровавое пиршество. Но пираньи уже знают ответ, кто победит: молодость или многовековая жажда крови…-Релиз группы:

Качество: BDRip
Формат: MKV
Формат 3d: Anamorph OverUnder / Вертикальная анаморфная стереопара
Порядок ракурсов: Левый ракурс сверху
Видео кодек: H264
Аудио кодек: AC-3, DTS
Видео: MPEG4 Video (H264) / 1920х1080 / 23.98fps / 9714 Кбит/сек
Аудио 1: Rus AC-3 / 5.1 / 48 kHz / 448 kbps / 16-bit
Аудио 2: Eng DTS / 5.1 / 48 kHz / 1510 kbps / 16-bit
Субтитры: Нет-Скриншоты

Скриншоты



Медиа инфо

Общее
UniqueID/String : 173366758610003997001756686196974366072 (0x826D39221DFBFDB0A1D3D605289D2D78)
Полное имя : Пираньи_Half_OU_1080p.mkv
Формат : Matroska
Размер файла : 7,38 Гбайт
Продолжительность : 1 ч. 28 м.
Общий поток : 12,0 Мбит/сек
Дата кодирования : UTC 2011-01-18 13:47:35
Программа кодирования : mkvmerge v4.4.0 ('Die Wiederkehr') сборка от Oct 31 2010 21:52:48
Библиотека кодирования : libebml v1.0.0 + libmatroska v1.0.0
Видео
Идентификатор : 1
Формат : AVC
Формат/Информация : Advanced Video Codec
Профиль формата : High@L5.0
Параметр CABAC формата : Да
Параметр ReFrames формата : 5 кадры
Режим смешивания : Header stripping
Идентификатор кодека : V_MPEG4/ISO/AVC
Продолжительность : 1 ч. 28 м.
Битрейт : 9714 Кбит/сек
Ширина : 1920 пикс.
Высота : 1080 пикс.
Соотношение сторон : 16:9
Частота кадров : 23,976 кадр/сек
Цветовое пространство : YUV
Подвыборка цветности : 4:2:0
Битовая глубина : 8 бит
Тип развёртки : Прогрессивная
Бит/(Пиксели*Кадры) : 0.195
Размер потока : 6,00 Гбайт (81%)
Библиотека кодирования : x264 core 112 r1834 a51816a
Настройки программы : cabac=1 / ref=6 / deblock=0:-1:-1 / analyse=0x3:0x113 / me=umh / subme=8 / psy=1 / psy_rd=1.00:0.15 / mixed_ref=1 / me_range=16 / chroma_me=1 / trellis=1 / 8x8dct=1 / cqm=0 / deadzone=21,11 / fast_pskip=1 / chroma_qp_offset=-3 / threads=6 / sliced_threads=0 / nr=0 / decimate=1 / interlaced=0 / constrained_intra=0 / bframes=8 / b_pyramid=1 / b_adapt=2 / b_bias=0 / direct=3 / weightb=1 / open_gop=0 / weightp=2 / keyint=250 / keyint_min=23 / scenecut=40 / intra_refresh=0 / rc_lookahead=50 / rc=crf / mbtree=1 / crf=19.0 / qcomp=0.60 / qpmin=0 / qpmax=51 / qpstep=4 / ip_ratio=1.40 / aq=1:1.00
Основные цвета : BT.709-5, BT.1361, IEC 61966-2-4, SMPTE RP177
Характеристики трансфера : BT.709-5, BT.1361
Коэффициенты матрицы : BT.709-5, BT.1361, IEC 61966-2-4 709, SMPTE RP177
Аудио #1
Идентификатор : 2
Формат : AC-3
Формат/Информация : Audio Coding 3
Расширение режима : CM (complete main)
Режим смешивания : Header stripping
Идентификатор кодека : A_AC3
Продолжительность : 1 ч. 28 м.
Вид битрейта : Постоянный
Битрейт : 448 Кбит/сек
Канал(ы) : 6 канала(ов)
Расположение каналов : Front: L C R, Side: L R, LFE
Частота : 48,0 КГц
Битовая глубина : 16 бит
Метод сжатия : С потерями
Размер потока : 283 Мбайт (4%)
Аудио #2
Идентификатор : 3
Формат : DTS
Формат/Информация : Digital Theater Systems
Профиль формата : MA / Core
Режим смешивания : Header stripping
Идентификатор кодека : A_DTS
Продолжительность : 1 ч. 28 м.
Вид битрейта : Переменный
Битрейт : 1561 Кбит/сек / 1510 Кбит/сек
Канал(ы) : 6 канала(ов)
Расположение каналов : Front: L C R, Side: L R, LFE
Частота : 48,0 КГц
Битовая глубина : 16 бит
Метод сжатия : Без потерь / Lossy
Меню
00:00:00.000 : :Часть-1
00:07:22.817 : :Часть-2
00:13:04.659 : :Часть-3
00:20:40.865 : :Часть-4
00:30:20.068 : :Часть-5
00:38:55.792 : :Часть-6
00:45:19.342 : :Часть-7
00:51:20.786 : :Часть-8
01:01:22.095 : :Часть-9
01:08:05.873 : :Часть-10
01:16:33.464 : :Часть-11
01:22:11.718 : :Часть-12
Благодарности релизеру (1)

Торрент:

Статус:

Размер:

Зарегистрирован   [ 2011-09-13 17:35 ]

проверено

7.38 GB

 
Комментарии:

Пред.  1, 2, 3, 4






Это старый релиз, здесь реф=6, видимо потому и не воспроизводит! Хотя мой Самсунг С7000 - без проблем воспроизвёл.
 

LG-LX9500 тож не кажет.. подскажите как переделать себе:
КДМ писал(а): Не воспроизводится на моем телеке (Lg lx 6500). Сравнил с медиа-инфо других фильмов (без проблем прочитанных встроенным плеером), возможно дело в "ReFrames"? У этого фильма оно 5 , а у других - 4 и ниже. Кто нибудь столкнулся с этим? Проблема именно в этом.. В скором времени устраню.
 

LG LW575 не показывает (
 

danrousдело именно в реф. Рип старый. Лыж тогда практически небыло...
 

danrousдело именно в реф. Рип старый. Лыж тогда практически небыло...
я об этом и спрашиваю, как переделать reframes на 4 в этом торренте?
спс
 

danrous
Никак. Заново кодировать надо.
 

У меня не показывает,и мне до лампочки - Ваши заумности.)))
 

А нам, vovka794, до лампочки ваши проблемы!!!
 

жаль
 

жаль
Что вам жаль? Что нам до лампочки проблемы бескультурного Вовочки? Это не значит, что нам до лампочки проблемы нормальных пользователей! Я проблему Пираний уже взял на заметку, и мы с TopGun'ом постараемся как-то решить этот вопрос, как появится время.
Просто надо покорректнее быть, особенно если ты молчаливый качальщик, не имеющий даже нормального рейтинга! С нормальными пользователями мы всегда корректны и стараемся идти навстречу.
 

я чёт не понял за что так в аффект впадать и за какие такие высказывания меня называть "молчаливый качальщик", критик я по возможности.
 

eshua, всё, что я сказал, адресовано совсем не вам, а "резким писакам"!
Сорри, если не совсем понятно выразился! :)
 

И ХОРОШО ЧТО ВСЁ ОБРАЗУМИЛОСЬ.
 

Да ничего и не было, eshua, ни в ваш адрес, ни в адрес подавляющего большинства пользователей! Просто я не терплю хамства! :)
А переделанных Пираний ждите, надеюсь завтра...
 

можно уже и в архив отправить...
 

Топик был перенесен из форума Фильмы HD в форум Архив

Dag13
 

Страница 4 из 4

Пред.  1, 2, 3, 4