Торренты   
 
 


Легенды ночных стражей / Legend of the Guardians: The Owls of Ga’Hoole (Зак Снайдер) [2010 г., BDRip 1080p, OverUnder]

Рейтинг 3D:
Пока никто не голосовал
Рейтинг фильма:
Пока никто не голосовал
 
Вы должны быть авторизированы,
чтобы ставить оценки


Легенды ночных стражей / Legend of the Guardians: The Owls of Ga’Hoole
Год выпуска: 2010
Страна: США / Австралия
Жанр: фэнтези, приключения, мультфильм
Продолжительность: 01:29:17
Перевод: Профессиональный (полное дублирование)
Режиссер: Зак Снайдер
В ролях: Джим Стерджесс, Джоэл Эдгертон, Хьюго Уивинг, Эдриэнн ДеФариа, Ричард Роксбург, Дэвид Уэнэм, Хелен Миррен, Мириам Марголис, Сэм Нил, Джеффри Раш
Описание: Миром, в котором уже не осталось людей, правят совы… добрые… злые… как и всегда! В волшебном лесу - королевстве сов Тито - на Великом Дереве Га`Хуул, где разумные совы живут в гармонии, наступают мрачные времена. Королевство подвергается страшной опасности со стороны соседних жестоких правителей, и эта опасность грозит уничтожить привычное мироздание.
Формат 3d: OverUnder
Видео: AVC, h264, 1920х2160, 23,976 кадр/сек, 14,6 Мбит/сек
Аудио Rus: AC-3, 384 Кбит/сек, 6 каналов, 48,0 КГц
Аудио Eng: DTS, 1510 Кбит/сек, 6 каналов, 48,0 КГц

Скриншоты



Скриншоты сравнения http://screenshotcomparison.com/comparison/21104

me

Общее
Уникальный идентификатор : 173371176767052767315185698106163208039 (0x826E12F71959F2C28FBB03705ABE1F67)
Полное имя : D:\Legend of the Guardians.mkv
Формат : Matroska
Размер файла : 10,5 Гбайт
Продолжительность : 1 ч. 29 м.
Общий поток : 16,8 Мбит/сек
Дата кодирования : UTC 2011-01-19 19:22:17
Программа кодирования : mkvmerge v3.4.0 ('Rapunzel') сборка от May 15 2010 09:38:20
Библиотека кодирования : libebml v0.8.0 + libmatroska v0.9.0
Видео
Идентификатор : 1
Формат : AVC
Формат/Информация : Advanced Video Codec
Профиль формата : High@L4.1
Параметр CABAC формата : Да
Параметр ReFrames формата : 4 кадры
Идентификатор кодека : V_MPEG4/ISO/AVC
Продолжительность : 1 ч. 29 м.
Битрейт : 14,6 Мбит/сек
Ширина : 1920 пикс.
Высота : 2160 пикс.
Соотношение сторон : 0,889
Частота кадров : 23,976 кадр/сек
Цветовое пространство : YUV
Подвыборка цветности : 4:2:0
Битовая глубина : 8 бит
Тип развёртки : Прогрессивная
Бит/(Пиксели*Кадры) : 0.147
Размер потока : 9,10 Гбайт (87%)
Библиотека кодирования : x264 core 112 r1867 22bfd31
Настройки программы : cabac=1 / ref=4 / deblock=1:-1:-1 / analyse=0x3:0x113 / me=umh / subme=7 / psy=1 / psy_rd=1.00:0.00 / mixed_ref=1 / me_range=16 / chroma_me=1 / trellis=2 / 8x8dct=1 / cqm=0 / deadzone=21,11 / fast_pskip=1 / chroma_qp_offset=-3 / threads=6 / sliced_threads=0 / nr=0 / decimate=1 / interlaced=0 / constrained_intra=0 / bframes=6 / b_pyramid=0 / b_adapt=2 / b_bias=0 / direct=3 / weightb=1 / open_gop=0 / weightp=2 / keyint=250 / keyint_min=23 / scenecut=40 / intra_refresh=0 / rc_lookahead=40 / rc=crf / mbtree=1 / crf=18.0 / qcomp=0.60 / qpmin=0 / qpmax=51 / qpstep=4 / ip_ratio=1.40 / aq=1:1.00
Аудио #1
Идентификатор : 2
Формат : AC-3
Формат/Информация : Audio Coding 3
Расширение режима : CM (complete main)
Идентификатор кодека : A_AC3
Продолжительность : 1 ч. 29 м.
Вид битрейта : Постоянный
Битрейт : 384 Кбит/сек
Канал(ы) : 6 канала(ов)
Расположение каналов : Front: L C R, Side: L R, LFE
Частота : 48,0 КГц
Битовая глубина : 16 бит
Метод сжатия : С потерями
Размер потока : 245 Мбайт (2%)
Язык : Russian
Аудио #2
Идентификатор : 3
Формат : DTS
Формат/Информация : Digital Theater Systems
Идентификатор кодека : A_DTS
Продолжительность : 1 ч. 29 м.
Вид битрейта : Постоянный
Битрейт : 1510 Кбит/сек
Канал(ы) : 6 канала(ов)
Расположение каналов : Front: L C R, Side: L R, LFE
Частота : 48,0 КГц
Битовая глубина : 24 бит
Метод сжатия : С потерями
Размер потока : 964 Мбайт (9%)
Язык : English
Благодарности релизеру (0)

Торрент:

Статус:

Размер:

Зарегистрирован   [ 2011-01-20 00:17 ]

проверено

10.49 GB

 
Комментарии:

1, 2  След.






НУ просто нет слов!!! 1920х2160,!!!суперррр!!!!спасибо!!!
 

А куда делось ещё 7 минут?
 

Титры не все, был глюк с кодеком, переделывать не стал. Долго уж очень.
 

Dag13
а все таки переделать нельзя? чтоб уже был полноценный релиз :-)
а так конечно и за это спасибо
 

Звук с cam-rip или нормальный?
 

Dag13
а все таки переделать нельзя? чтоб уже был полноценный релиз :-)
а зачем нужны титры?
 

Prodigy
Если бы с cam-rip, то указал бы в описании. Да и после выхода дубляжа смысл выкладывать cam-rip.
 

boss-master
Не знаю, меня в том списке всеравно нет, да и не кого из нас, я думаю.
 

Спасибо.
2J-fx
Из-за титров переделывать? :))) Да их вообще везде вырезать специально надо.
 

Dag13
а че ты вообще титры не убрал, меньше бы размер получился
 

boss-master
Там их меньше минуты осталось.
 

кто нибудь скажет когда появятся чудаки 3D
 

Встроенным проигрывателем в самец 7 серии не видит. Ваши предложения.
 

365
качай эту раздачу
 

Спасибо огромное за отличное качество.
 

Сто лет уже не пользовался стереоскопиком . Подскажите какие фильтры куда засовывать ,а то виснет намертво :)
 

senya016
Почитай вот эту тему может поможет
 

Спасибо , попробую
 

Спасибо за хороший мульт.
 

Закиньте анаглиф в 1080р пожалуйста. И напишите плиз в ЛС как появится или есть уже.
 

Страница 1 из 2

1, 2  След.