Торренты   
 
 


4 ролика от Zagruzin [стеб, юмор, 3Д эффекты, эксперименты, Anamorph OverUnder]

Рейтинг 3D:
2 голосов
6.5
Рейтинг фильма:
3 голосов
6.6
 
Вы должны быть авторизированы,
чтобы ставить оценки


4 ролика от Zagruzin
Страна: Россия
Год: 2009-10
Жанр: эксперименты, пробы, стеб, юмор, бред, 3Д эффекты, гипербазы, атипичное стереокино, музыка
Продолжительность: 6-10мин
Оф. страничка: http://glinka3d.ucoz.ru
Содержание:
1) Животный мир МКАДа 3D. (животные (не водители с МКАД), природа)
2) Лесная прогулка 3D. (природа, приколы, 3Д эксперименты)
3) Про ни о чём в 3D. (микро сюжеты на разные темы)
4) Просто 3D приколы. (просто набор приколов:)
Отдельно на трекере в разделе "3D шоу" музыкальный комедийный ужастик:
5) "Пылесос кровосос в 3Д" Anamorph OverUnder - http://torrents3d.ru/article/1175/
Описание: Ролики Загрузина & Co с их сайта (для тех, кто не смотрел; а я только анаморфнул для ТВ-ЮСБ). Не знаю как кому будет, а мне очень понравились! И 3д, и видеоэффектами, и примером съёмок родной природы, и музыкой всей (особенно приятно было вспомнить А.Пушного)! Потрудились ребята! РЕСПЕКТ!!! Подозреваю, что здесь он не выложил их из скромности. Думаю, что главный герой и есть наш главмодер! Надеюсь не забанит меня за нарушение копирайта!
Формат: MKV
Видео: AVC / 1280x1080 / 29.97 fps / ~4 Mbps
Аудио [rus]: mp3 / 2 ch / 192 Kbps / 48 KHz
Формат 3d: Anamorph OverUnder

MediaInfo для первого файла (остальные отличаются только битрейтом - от 3650 до 4550 kbps)

General
UniqueID : 246918401836469444096350340314039040902 (0xB9C2C11FD0A96DA786DAC09D88CBBB86)
Complete name : F:\Downloads\4 ролика про Подмосковье\Lesnaya_progulka_3D.anmf.mkv
Format : Matroska
File size : 291 MiB
Duration : 10mn 34s
Overall bit rate : 3 849 Kbps
Encoded date : UTC 2011-01-19 20:26:58
Writing application : mkvmerge v4.4.0 ('Die Wiederkehr') сборка от Oct 31 2010 21:52:48
Writing library : libebml v1.0.0 + libmatroska v1.0.0
Video
ID : 1
Format : AVC
Format/Info : Advanced Video Codec
Format profile : High@L4.1
Format settings, CABAC : Yes
Format settings, ReFrames : 3 frames
Codec ID : V_MPEG4/ISO/AVC
Duration : 10mn 34s
Bit rate : 3 650 Kbps
Width : 1 280 pixels
Height : 1 080 pixels
Display aspect ratio : 1.185
Frame rate : 29.970 fps
Color space : YUV
Chroma subsampling : 4:2:0
Bit depth : 8 bits
Scan type : Progressive
Bits/(Pixel*Frame) : 0.088
Stream size : 271 MiB (93%)
Writing library : x264 core 98 r1649 c54c47d
Encoding settings : cabac=1 / ref=3 / deblock=1:-1:-1 / analyse=0x3:0x113 / me=umh / subme=9 / psy=1 / psy_rd=1.00:0.15 / mixed_ref=1 / me_range=16 / chroma_me=1 / trellis=2 / 8x8dct=1 / cqm=0 / deadzone=21,11 / fast_pskip=1 / chroma_qp_offset=-3 / threads=3 / sliced_threads=0 / nr=0 / decimate=1 / interlaced=0 / constrained_intra=0 / bframes=3 / b_pyramid=0 / b_adapt=2 / b_bias=0 / direct=3 / weightb=1 / weightp=2 / keyint=250 / keyint_min=25 / scenecut=40 / intra_refresh=0 / rc_lookahead=40 / rc=2pass / mbtree=1 / bitrate=3650 / ratetol=3.0 / qcomp=0.60 / qpmin=10 / qpmax=51 / qpstep=4 / cplxblur=20.0 / qblur=0.5 / vbv_maxrate=50000 / vbv_bufsize=50000 / ip_ratio=1.40 / aq=1:1.00 / nal_hrd=none
Audio
ID : 2
Format : MPEG Audio
Format version : Version 1
Format profile : Layer 3
Mode : Joint stereo
Codec ID : A_MPEG/L3
Codec ID/Hint : MP3
Duration : 10mn 34s
Bit rate mode : Constant
Bit rate : 192 Kbps
Channel(s) : 2 channels
Sampling rate : 48.0 KHz
Compression mode : Lossy
Stream size : 14.5 MiB (5%)
Language : Russian

Скриншоты (превью с кликом)

Дооформлено by Zagruzin
Благодарности релизеру (4)

Торрент:

Статус:

Размер:

Зарегистрирован   [ 2011-01-20 18:47 ]

проверено

1.07 GB