Торренты   
 
 


Африканское сафари в 3Д / African Safari 3D (Бен Стассен / Ben Stassen) [2013, Документальный, семейный, BDRip-AVC] Half OverUnder / Вертикальная анаморфная стереопара

Рейтинг 3D:
2 голосов
5.3
Рейтинг фильма:
2 голосов
5.3
 
Вы должны быть авторизированы,
чтобы ставить оценки


Африканское сафари в 3Д / African Safari 3D
Год выпуска: 2013
Страна: Бельгия, Франция, Италия, США (Studio Canal, nWave Pictures)
Жанр: Документальный, Семейный
Продолжительность: 1:25:55
Перевод: Профессиональный (двухголосый) - Amedia
Режиссер: Бен Стассен
Описание: Пройдя вместе со съемочной группой от атлантического побережья Намибии до снегов величественной горы Килиманджаро, вы увидите то, что сложно даже представить: купание гигантских слонов, охотящихся хищников, 15 миллионов летучих мышей разом и даже карабкающихся по деревьям львов. С помощью высококачественного 3D уникальная экосистема Черного Континента предстанет во всей своей красоте и величии.
Качество: BDRip (by Ash61)
Контейнер: MKV
Формат 3D: Half OverUnder / Вертикальная анаморфная стереопара
Порядок ракурсов: левый ракурс первый
Видео кодек: x264
Аудио кодек: AC3
Видео: AVC / 23,976 fps / 1920х1080p / 15.0 Mbps
Аудио:
#1 - Русский / AC3 / 48 KHz / 5.1 ch / 640 Kbps (DVO - Amedia)
#2 - Английский / AC3 / 48 KHz / 5.1 ch / 640 Kbps (Original - BD 3D)
Субтитры: Отсутствуют

Скриншоты



Media Info

General
Unique ID : 251386084888840716738397468150702276224 (0xBD1F32E7C41AAD958E40581E99EBFE80)
Complete name : E:AfricanSafari(2013)3D-halfOU(Ash61)DVO.mkv
Format : Matroska
Format version : Version 2
File size : 9.95 GiB
Duration : 1h 25mn
Overall bit rate : 16.6 Mbps
Movie name : Африканское сафари 3D / African Safari 3D (2013) в 3Д
Encoded date : UTC 2014-09-15 14:01:33
Writing application : mkvmerge v5.8.0 ('No Sleep / Pillow') built on Sep 2 2012 15:37:04
Writing library : libebml v1.2.3 + libmatroska v1.3.0
Video
ID : 1
Format : AVC
Format/Info : Advanced Video Codec
Format profile : High@L4.1
Format settings, CABAC : Yes
Format settings, ReFrames : 4 frames
Codec ID : V_MPEG4/ISO/AVC
Duration : 1h 25mn
Bit rate : 15.0 Mbps
Width : 1 920 pixels
Height : 1 080 pixels
Display aspect ratio : 16:9
Frame rate mode : Constant
Frame rate : 23.976 fps
Color space : YUV
Chroma subsampling : 4:2:0
Bit depth : 8 bits
Scan type : Progressive
Bits/(Pixel*Frame) : 0.301
Stream size : 8.98 GiB (90%)
Title : BDRip by Ash61
Writing library : x264 core 138 r2358 9e941d1
Encoding settings : cabac=1 / ref=4 / deblock=1:-3:-3 / analyse=0x3:0x113 / me=umh / subme=10 / psy=1 / psy_rd=1.00:0.15 / mixed_ref=1 / me_range=32 / chroma_me=1 / trellis=2 / 8x8dct=1 / cqm=0 / deadzone=21,11 / fast_pskip=1 / chroma_qp_offset=-3 / threads=12 / lookahead_threads=3 / sliced_threads=0 / nr=0 / decimate=1 / interlaced=0 / bluray_compat=0 / constrained_intra=0 / bframes=10 / b_pyramid=2 / b_adapt=2 / b_bias=0 / direct=3 / weightb=1 / open_gop=0 / weightp=2 / keyint=250 / keyint_min=23 / scenecut=40 / intra_refresh=0 / rc_lookahead=60 / rc=crf / mbtree=1 / crf=17.5 / qcomp=0.70 / qpmin=0 / qpmax=69 / qpstep=4 / vbv_maxrate=40000 / vbv_bufsize=30000 / crf_max=0.0 / nal_hrd=none / frame-packing=4 / ip_ratio=1.40 / aq=1:0.70
Default : Yes
Forced : No
Audio #1
ID : 2
Format : AC-3
Format/Info : Audio Coding 3
Mode extension : CM (complete main)
Format settings, Endianness : Big
Codec ID : A_AC3
Duration : 1h 25mn
Bit rate mode : Constant
Bit rate : 640 Kbps
Channel(s) : 6 channels
Channel positions : Front: L C R, Side: L R, LFE
Sampling rate : 48.0 KHz
Bit depth : 16 bits
Compression mode : Lossy
Stream size : 393 MiB (4%)
Title : Двухголосый закадровый - Amedia
Language : Russian
Default : Yes
Forced : No
Audio #2
ID : 3
Format : AC-3
Format/Info : Audio Coding 3
Mode extension : CM (complete main)
Format settings, Endianness : Big
Codec ID : A_AC3
Duration : 1h 25mn
Bit rate mode : Constant
Bit rate : 640 Kbps
Channel(s) : 6 channels
Channel positions : Front: L C R, Side: L R, LFE
Sampling rate : 48.0 KHz
Bit depth : 16 bits
Compression mode : Lossy
Stream size : 393 MiB (4%)
Language : English
Default : No
Forced : No
Menu
00:00:00.000 : :1
00:10:27.252 : :2
00:21:49.934 : :3
00:31:35.894 : :4
00:42:35.553 : :5
00:53:23.992 : :6
01:03:13.123 : :7
01:13:10.636 : :8
01:21:13.535 : :9
Благодарности релизеру (1)

Торрент:

Статус:

Размер:

Зарегистрирован   [ 2014-09-16 14:50 ]

проверено

9.95 GB