Торренты   
 
 

 

Грань будущего / Edge of Tomorrow (Даг Лайман) [2014 г., Anamorph OverUnder]

Рейтинг 3D:
112 голосов
7.6
Рейтинг фильма:
120 голосов
8.1
 
Вы должны быть авторизированы,
чтобы ставить оценки



Грань будущего / Edge of Tomorrow

Год выпуска: 2014
Страна: США, Австралия
Жанр: фантастика, боевик
Продолжительность: 01:53:29
Перевод: Профессиональный (полное дублирование)
Режиссер: Даг Лайман
В ролях: Том Круз, Эмили Блант, Брендан Глисон, Билл Пэкстон, Джонас Армстронг, Тони Вэй, Кик Гарри, Франц Драмех, Драгомир Мрсич, Шарлотта Райли
Описание: В недалёком будущем раса инопланетян вторгается на Землю. Никакая армия в мире не может противостоять им. Майор Уильям Кейдж умирает в бою, но случается невозможное — он оказывается во временной петле. Раз за разом он попадает в один и тот же бой, сражается и умирает… снова и снова. И каждое повторяющееся сражение приближает его к разгадке того, как победить врага.
Качество: BDrip
Контейнер: MKV
Формат 3D: Anamorph OverUnder / Вертикальная анаморфная стереопара
Порядок ракурсов: левый ракурс первый
Видео кодек: x264
Аудио кодек: AC-3
Видео: AVC, High@L4.1, 1920х1080, 23,976 кадра/сек, 9531 Кбит/сек
Аудио:
48 kHz, AC3 Dolby Digital, 5/1 ch, ~640.00 kbps avg |Russian| |Дубляж|
48 kHz, AC3 Dolby Digital, 5/1 ch, ~640.00 kbps avg |English|
Cубтитры: Русские, английские

Скриншоты

Media Info

Общее
Уникальный идентификатор : 233659388109234827023802550236655293848 (0xAFC92946AD027EC4966FA605551A9598)
Полное имя : H:\Source\EdgeOfTomorrow.3D.2014.BDrip.Half.OU.x264.AC3.(itsamna).mkv
Формат : Matroska
Версия формата : Version 4 / Version 2
Размер файла : 8,74 Гбайт
Продолжительность : 1 ч. 53 м.
Общий поток : 11,0 Мбит/сек
Название фильма : Edge of Tomorrow (2014) rip by itsamna aka StarStranger (release 3D-RuGroup)
Дата кодирования : UTC 2014-09-27 06:08:13
Программа кодирования : mkvmerge v6.8.0 ('Theme for Great Cities') 32bit built on Mar 2 2014 21:27:07
Библиотека кодирования : libebml v1.3.0 + libmatroska v1.4.1
Attachment : Yes
Видео
Идентификатор : 1
Формат : AVC
Формат/Информация : Advanced Video Codec
Профиль формата : High@L4.1
Параметр CABAC формата : Да
Параметр ReFrames формата : 4 кадра
Идентификатор кодека : V_MPEG4/ISO/AVC
Продолжительность : 1 ч. 53 м.
Битрейт : 9531 Кбит/сек
Ширина : 1920 пикселей
Высота : 1080 пикселей
Соотношение сторон : 16:9
Режим частоты кадров : Постоянный
Частота кадров : 23,976 кадра/сек
Цветовое пространство : YUV
Субдискретизация насыщенности : 4:2:0
Битовая глубина : 8 бит
Тип развёртки : Прогрессивная
Бит/(Пиксели*Кадры) : 0.192
Размер потока : 7,56 Гбайт (86%)
Библиотека кодирования : x264 core 130 r2273 b3065e6
Настройки программы : cabac=1 / ref=4 / deblock=1:-3:-3 / analyse=0x3:0x133 / me=umh / subme=10 / psy=1 / psy_rd=1.00:0.15 / mixed_ref=1 / me_range=32 / chroma_me=1 / trellis=2 / 8x8dct=1 / cqm=0 / deadzone=21,11 / fast_pskip=0 / chroma_qp_offset=-3 / threads=12 / lookahead_threads=2 / sliced_threads=0 / nr=0 / decimate=1 / interlaced=0 / bluray_compat=0 / constrained_intra=0 / bframes=8 / b_pyramid=2 / b_adapt=2 / b_bias=0 / direct=3 / weightb=1 / open_gop=0 / weightp=2 / keyint=250 / keyint_min=23 / scenecut=40 / intra_refresh=0 / rc_lookahead=60 / rc=crf / mbtree=1 / crf=17.0 / qcomp=0.60 / qpmin=0 / qpmax=69 / qpstep=4 / vbv_maxrate=50000 / vbv_bufsize=62500 / crf_max=0.0 / nal_hrd=none / ip_ratio=1.40 / aq=1:0.90
Default : Да
Forced : Нет
Аудио #1
Идентификатор : 2
Формат : AC-3
Формат/Информация : Audio Coding 3
Расширение режима : CM (complete main)
Параметр Endianness формата : Big
Идентификатор кодека : A_AC3
Продолжительность : 1 ч. 53 м.
Вид битрейта : Постоянный
Битрейт : 640 Кбит/сек
Каналы : 6 каналов
Расположение каналов : Front: L C R, Side: L R, LFE
Частота : 48,0 КГц
Битовая глубина : 16 бит
Метод сжатия : С потерями
Размер потока : 520 Мбайт (6%)
Заголовок : Dub | DD 5.1 @ 640 kbps - Blu-Ray CEE
Язык : Russian
Default : Да
Forced : Да
Аудио #2
Идентификатор : 3
Формат : AC-3
Формат/Информация : Audio Coding 3
Расширение режима : CM (complete main)
Параметр Endianness формата : Big
Идентификатор кодека : A_AC3
Продолжительность : 1 ч. 53 м.
Вид битрейта : Постоянный
Битрейт : 640 Кбит/сек
Каналы : 6 каналов
Расположение каналов : Front: L C R, Side: L R, LFE
Частота : 48,0 КГц
Битовая глубина : 16 бит
Метод сжатия : С потерями
Размер потока : 520 Мбайт (6%)
Заголовок : Original
Язык : English
Default : Нет
Forced : Нет
Текст #1
Идентификатор : 4
Формат : UTF-8
Идентификатор кодека : S_TEXT/UTF8
Идентификатор кодека/Информация : UTF-8 Plain Text
Заголовок : Forced
Язык : Russian
Default : Да
Forced : Нет
Текст #2
Идентификатор : 5
Формат : UTF-8
Идентификатор кодека : S_TEXT/UTF8
Идентификатор кодека/Информация : UTF-8 Plain Text
Заголовок : Full
Язык : Russian
Default : Нет
Forced : Нет
Текст #3
Идентификатор : 6
Формат : UTF-8
Идентификатор кодека : S_TEXT/UTF8
Идентификатор кодека/Информация : UTF-8 Plain Text
Заголовок : Full
Язык : Ukrainian
Default : Нет
Forced : Нет
Текст #4
Идентификатор : 7
Формат : UTF-8
Идентификатор кодека : S_TEXT/UTF8
Идентификатор кодека/Информация : UTF-8 Plain Text
Заголовок : Full
Язык : English
Default : Нет
Forced : Нет
Текст #5
Идентификатор : 8
Формат : UTF-8
Идентификатор кодека : S_TEXT/UTF8
Идентификатор кодека/Информация : UTF-8 Plain Text
Заголовок : SDH
Язык : English
Default : Нет
Forced : Нет
Текст #6
Идентификатор : 9
Формат : UTF-8
Идентификатор кодека : S_TEXT/UTF8
Идентификатор кодека/Информация : UTF-8 Plain Text
Заголовок : SDH (Colored)
Язык : English
Default : Нет
Forced : Нет
Меню
00:00:00.000 : en:00:00:00.000
00:10:28.169 : en:00:10:28.169
00:17:39.100 : en:00:17:39.100
00:24:50.197 : en:00:24:50.197
00:35:57.947 : en:00:35:57.947
00:46:27.284 : en:00:46:27.284
00:54:34.771 : en:00:54:34.771
01:04:59.562 : en:01:04:59.562
01:12:53.077 : en:01:12:53.077
01:23:08.901 : en:01:23:08.901
01:32:34.132 : en:01:32:34.132
01:42:53.584 : en:01:42:53.584
01:45:46.215 : en:01:45:46.215
--Релиз группы:

Проверено на встроенном плейере ТВ LG 42LW4500
--27.09.2014. Релиз обновлён - русская дорога заменена на лицензию.
Желающие, скачайте заново торрент-файл.
Остальные раздачи этого фильма (2)
Благодарности релизеру (78)

Торрент:

Статус:

Размер:

Зарегистрирован   [ 2014-09-27 10:33 ]

проверено

8.74 GB

 
 Мнение о фильме (47)

Пред.  1, 2, 3  След.






спасибо
 

мура, просто мура, за что спасибо то ? за фильм ? за фильм ничего не дам
 

У меня что-то на моем Самсунге 6510 не проигрывает :(((. Ни этот, ни обрезанный. Телевизор виснет, приходится ывдергивать из розетки. Что не так? Не пойму...
 

Мне 3Д здесь не очень понравилось, присутсвует, но невыразительно. А сам фильм неплох.
 

Релизеру спасибо,но фильм дерьмо полное...
 

Фильм хороший, а вот 3D на двоечку. Вообще в последнее время нас 3D не слишком балуют. То ли обленились, и, тупо экономя бабло, гонят простенький конверт с минимальной глубиной, справедливо, в общем-то, предполагая, что пипл и так схавает, то ли боятся обвинений и исков от горе-зрителей, у которых "головка болит". Еще десяток таких 3D-шедевров - и 3D умрет всерьез и надолго. Люди просто перестанут ходить на 3D, не видя никакого существенного преимущества перед традиционным кино.
 

С удовольствием посмотрели фильм.
 

Да кино хорошее, не раз посмотреть можно. Юморной местами)
 

Спасибо за релиз! 3d хорошее,но есть моменты где очень двоиться,сам фильм средненький!
за 3D-8/10
за фильм 6/10
за релиз и раздачу 10/10
 

кино - СУПЕР! Только вот в бой с кем в конце фильма собираюццо все идти, если этот мегамозг пришельцев уже разбит? Вот такой сценарный ляп))))))))))))))) И что-то никто не замечает888
 

Классная фантастика,все супер.Спасибо
 

Отличный фильм )
 
Михастудия Профиль 01-Дек-2014 16:48

Фильм супер! Скачиваю второй раз что бы пересмотреть.
 

Очень понравился фильм!Хороший сюжет и смысл!
 

хорошо
 

Фильм стоящий особенно учитывая главного актёра.
 

Офигительный фильм!!!!!! Не пожалел потраченного на просмотр времени!!!!!!!! Зачёт!!!
 

Фильм понравился: интересный, увлекательный. Удачно подобран на главную роль актер Том Круз.
 

killer29, Добрый день, не поможете?
Скачал с начало от сюда http://torrents3d.ru/article/10794/
Запускаю через SmartShare с лептопа на телевизор Lg все отлично работает.
Но та раздача с полосами.
Я её удалил и скачал Вашу раздачу.
Телевизор пишет, что файл нельзя распознать.
Что делать, так хотелось помотреть без полос черных.
За ранее спасибо
 

kaiser77, "Телевизор пишет, что файл нельзя распознать. Что делать"
У меня под ванной что-то стучит. Не знаете что?
 

Страница 2 из 3

Пред.  1, 2, 3  След.