Торренты   
 
 


Пила VII 3D / Saw VII 3D (Кевин Гротерт) [2010 г., BDRip 1080p, OverUnder]

Пила VII 3D / Saw VII 3D
Год выпуска: 2010
Страна: США
Жанр: ужасы, триллер, детектив
Продолжительность: 01:30:00
Перевод: Профессиональный (полное дублирование)
Режиссер: Кевин Гротерт
В ролях: Костас Мэндилор (Det. Mark Hoffman), Шон Патрик Флэнери (Bobby Dagen), Тобин Белл (Jigsaw / John Kramer), Кэри Элвис (Dr. Lawrence Gordon), Бетси Расселл (Jill Tuck), Дин Армстронг (Cale), Чэд Донелла (Det. Matt Gibson), Джина Холден (Joyce Dagen), Наоми Сникус (Nina), Ребекка Маршалл (Suzanne), Джеймс Ван Паттен (Dr. Heffner), Себастьян Пижотт (Brad)
Описание: Жертвы Пилы, выжившие в предыдущих испытаниях, обращаются за психологической помощью к товарищу по несчастью Бобби Дагену. Но когда его собственные темные тайны всплывают на свет, развязывается новая волна террора
Формат 3d: OverUnder
Видео: AVC, h264, 1920х2160, 23,976 кадр/сек, 16,6 Мбит/сек
Аудио: AC-3, 448 Кбит/сек, 6 каналов, 48,0 КГц, Russian
Аудио: AC-3, 448 Кбит/сек, 6 каналов, 48,0 КГц, English

Скриншоты



me

Общее
Уникальный идентификатор : 193517181413992710965947711464311940575 (0x91960DAE7F39DF76BA74907F0F94E5DF)
Полное имя : D:\SAW3D.mkv
Формат : Matroska
Размер файла : 11,2 Гбайт
Продолжительность : 1 ч. 30 м.
Общий поток : 17,8 Мбит/сек
Дата кодирования : UTC 2011-01-22 16:13:40
Программа кодирования : mkvmerge v3.4.0 ('Rapunzel') сборка от May 15 2010 09:38:20
Библиотека кодирования : libebml v0.8.0 + libmatroska v0.9.0
Видео
Идентификатор : 1
Формат : AVC
Формат/Информация : Advanced Video Codec
Профиль формата : High@L5.0
Параметр CABAC формата : Да
Параметр ReFrames формата : 4 кадры
Параметры GOP формата : M=1, N=16
Идентификатор кодека : V_MPEG4/ISO/AVC
Продолжительность : 1 ч. 30 м.
Битрейт : 16,6 Мбит/сек
Ширина : 1920 пикс.
Высота : 2160 пикс.
Соотношение сторон : 0,889
Частота кадров : 23,976 кадр/сек
Цветовое пространство : YUV
Подвыборка цветности : 4:2:0
Битовая глубина : 8 бит
Тип развёртки : Прогрессивная
Бит/(Пиксели*Кадры) : 0.167
Размер потока : 10,4 Гбайт (93%)
Библиотека кодирования : x264 core 112 r1867 22bfd31
Настройки программы : cabac=1 / ref=4 / deblock=1:-1:-1 / analyse=0x3:0x113 / me=umh / subme=7 / psy=1 / psy_rd=1.00:0.00 / mixed_ref=1 / me_range=16 / chroma_me=1 / trellis=2 / 8x8dct=1 / cqm=0 / deadzone=21,11 / fast_pskip=1 / chroma_qp_offset=-3 / threads=6 / sliced_threads=0 / nr=0 / decimate=1 / interlaced=0 / constrained_intra=0 / bframes=6 / b_pyramid=0 / b_adapt=2 / b_bias=0 / direct=3 / weightb=1 / open_gop=0 / weightp=2 / keyint=250 / keyint_min=23 / scenecut=40 / intra_refresh=0 / rc_lookahead=40 / rc=crf / mbtree=1 / crf=22.0 / qcomp=0.60 / qpmin=0 / qpmax=51 / qpstep=4 / ip_ratio=1.40 / aq=1:1.00
Аудио #1
Идентификатор : 2
Формат : AC-3
Формат/Информация : Audio Coding 3
Расширение режима : CM (complete main)
Идентификатор кодека : A_AC3
Продолжительность : 1 ч. 30 м.
Вид битрейта : Постоянный
Битрейт : 448 Кбит/сек
Канал(ы) : 6 канала(ов)
Расположение каналов : Front: L C R, Side: L R, LFE
Частота : 48,0 КГц
Битовая глубина : 16 бит
Метод сжатия : С потерями
Размер потока : 288 Мбайт (3%)
Язык : Russian
Аудио #2
Идентификатор : 3
Формат : AC-3
Формат/Информация : Audio Coding 3
Расширение режима : CM (complete main)
Идентификатор кодека : A_AC3
Продолжительность : 1 ч. 30 м.
Вид битрейта : Постоянный
Битрейт : 448 Кбит/сек
Канал(ы) : 6 канала(ов)
Расположение каналов : Front: L C R, Side: L R, LFE
Частота : 48,0 КГц
Битовая глубина : 16 бит
Метод сжатия : С потерями
Размер потока : 288 Мбайт (3%)
Язык : English
Скриншоты сравнения: http://screenshotcomparison.com/comparison/21809
Просьба по поводу скорости канала не высказываться, полная раздача займет более двух суток. Терпение-добродетель.
SAW3D.mkv.torrent
Торрент: Не зарегистрирован

Скачать

56 KB

Добавлен: 2011-01-22 20:58
Скачано: 3919 раз  [ Список скачавших ]
   
Комментарии:

Пред.  1, 2, 3, 4






Спасибо большое!!! Качество просто на высшем уровне. Качайте не пожалеете.
 

Топик был перенесен из форума Фильмы HD в форум Архив

Dag13
 

Страница 4 из 4

Пред.  1, 2, 3, 4