Торренты   
 
 

 

5D Аттракцион [2013 г., Anamorph SideBySide]

Рейтинг 3D:
12 голосов
7.8
Рейтинг фильма:
9 голосов
5.4
 
Вы должны быть авторизированы,
чтобы ставить оценки


5D аттракцион
Год выпуска: 2013
Страна: usa
Жанр: Развлечение
Продолжительность: 3 ролика по 4 и 6 минут
Описание: Для всех ценителей 5D аттракционов с вылетами из экрана и прочей нечестью! Приятного просмотра!
Формат 3D: Anamorph SideBySide
Порядок ракурсов: Параллельная пара

Скриншоты






Media Info

Общее
Уникальный идентификатор : 168348648403719580577546155723716462494 (0x7EA6C532C2870C1E037BA147C20E879E)
Полное имя : D:\Users\Герман\Desktop\5D attraktion\5D movies corpse from Guangzhou Xindy.mkv
Формат : Matroska
Версия формата : Version 2
Размер файла : 343 Мбайт
Продолжительность : 4 м. 42 с.
Общий поток : 10,2 Мбит/сек
Программа кодирования : Lavf51.12.1
Библиотека кодирования : Lavf51.12.1
Видео
Идентификатор : 1
Формат : AVC
Формат/Информация : Advanced Video Codec
Профиль формата : Baseline@L4.0
Параметр CABAC формата : Нет
Параметр ReFrames формата : 1 кадр
Параметр GOP формата : M=1, N=12
Идентификатор кодека : V_MPEG4/ISO/AVC
Продолжительность : 4 м. 42 с.
Битрейт : 9864 Кбит/сек
Ширина : 1920 пикселей
Высота : 1080 пикселей
Соотношение сторон : 16:9
Режим частоты кадров : Постоянный
Частота кадров : 30,000 кадров/сек
Цветовое пространство : YUV
Субдискретизация насыщенности : 4:2:0
Битовая глубина : 8 бит
Тип развёртки : Прогрессивная
Бит/(Пиксели*Кадры) : 0.159
Размер потока : 332 Мбайт (97%)
Default : Да
Forced : Нет
Аудио
Идентификатор : 2
Формат : AC-3
Формат/Информация : Audio Coding 3
Расширение режима : CM (complete main)
Параметр Endianness формата : Big
Идентификатор кодека : A_AC3
Продолжительность : 4 м. 42 с.
Вид битрейта : Постоянный
Битрейт : 128 Кбит/сек
Каналы : 2 канала
Расположение каналов : Front: L R
Частота : 44,1 КГц
Битовая глубина : 16 бит
Метод сжатия : С потерями
Размер потока : 4,30 Мбайт (1%)
Default : Да
Forced : Нет
Благодарности релизеру (24)

Торрент:

Статус:

Размер:

Зарегистрирован   [ 2014-09-23 09:39 ]

проверено

1.14 GB

 
 Мнение о фильме (11)





Только в последнем ролике есть вылет, а в остальном мельтишня...бесполезно для дома.
 

Так это и понятно,что эти ролики не для "LG" для дома делались,но всё же не мало людей ищут такие ролики)
 

Да,да.
 

Ярмарочная развлекуха для приезжих селян. Просто удивительно, что такое г...о все еще выпускают в 2014 году.
 

МУСОР
 

Это вредно для здоровья... и морального и физического...
 

Bloody Road более-мение и имеет пару реальных вылетов, остальное шлак))) Когдато была идея собрать воедино ролики, но разочаровался.
 

Замечательно! Но не хватало движений кресла)) Ооооогромное спасибо раздающему - внучка 2,5 года и сын 8 лет смотрели в очках с удовольствием.
 

"Ооооогромное спасибо раздающему"
Ооооогромное пожалуйста)
 

Телевизор LG: глубина есть везде, но вылеты только в Bloody Road
 

ice, Еще в 5D movies Death city.mkv есть вылеты, но не впечатляющие))), ТВ LG ЛМ-620С. В 5D movies corpse from Guangzhou Xindy.mkv даже намека на вылет нет!!!