Торренты   
 
 

 

Легенды ночных стражей 3Д/ Legend of the Guardians: The Owls of Ga’Hoole 3D (Зак Снайдер / Zack Snayder) [2010 г., фэнтези, приключения, мультфильм , 1080p, BDRip, Anamorph OverUnder]

Рейтинг 3D:
21 голосов
8.4
Рейтинг фильма:
22 голосов
8.6
 
Вы должны быть авторизированы,
чтобы ставить оценки


Легенды ночных стражей 3Д/ Legend of the Guardians: The Owls of Ga’Hoole 3D - Год выпуска: 2010
Страна: США
Жанр: фэнтези, приключения, мультфильм
Продолжительность: 01:36:48
Перевод: Профессиональный (полное дублирование)
Русские субтитры: Есть-Режиссер: Зак Снайдер
В ролях: Джим Стерджесс, Джоэл Эдгертон, Хьюго Уивинг, Эдриэнн ДеФариа, Ричард Роксбург, Дэвид Уэнэм, Хелен Миррен, Мириам Марголис, Сэм Нил, Джеффри Раш
Описание фильма: Миром, в котором уже не осталось людей, правят совы… добрые… злые… как и всегда! В волшебном лесу - королевстве сов Тито - на Великом Дереве Га`Хуул, где разумные совы живут в гармонии, наступают мрачные времена. Королевство подвергается страшной опасности со стороны соседних жестоких правителей, и эта опасность грозит уничтожить привычное мироздание.-Релиз группы:

Качество: BDRip
Формат: MKV
Формат 3d: Anamorph OverUnder / Вертикальная анаморфная стереопара
Порядок ракурсов: Правый ракурс первый (верхний)
Видео кодек: H264
Аудио кодек: AC-3, DTS
Видео: MPEG4 Video (H264) / 1920х1080 / 23.98fps / 10,7 Мбит/сек
Аудио 1: Rus AC-3 / 5.1 / 48 kHz / 384 kbps / 16-bit
Аудио 2: Eng DTS / 5.1 / 48 kHz / 1510 kbps / 16-bit
Субтитры 1: Russian
Субтитры 2: English-

Скриншоты



Медиа инфо

General
Общее
UniqueID/String : 197057570453418696402163388165072669165 (0x943FE856895E48E7B9A9C0A1ABB0C9ED)
Полное имя : H:\Видео\3-D\Мои рипы\Мульты\Легенды_Ночных_Стражей_Half_OU_1080p.mkv
Формат : Matroska
Размер файла : 8,69 Гбайт
Продолжительность : 1 ч. 36 м.
Общий поток : 12,9 Мбит/сек
Дата кодирования : UTC 2011-01-30 08:42:36
Программа кодирования : mkvmerge v4.4.0 ('Die Wiederkehr') сборка от Oct 31 2010 21:52:48
Библиотека кодирования : libebml v1.0.0 + libmatroska v1.0.0
Видео
Идентификатор : 1
Формат : AVC
Формат/Информация : Advanced Video Codec
Профиль формата : High@L4.0
Параметр CABAC формата : Да
Параметр ReFrames формата : 3 кадры
Режим смешивания : Header stripping
Идентификатор кодека : V_MPEG4/ISO/AVC
Продолжительность : 1 ч. 36 м.
Битрейт : 10,7 Мбит/сек
Ширина : 1920 пикс.
Высота : 1080 пикс.
Соотношение сторон : 16:9
Частота кадров : 23,976 кадр/сек
Цветовое пространство : YUV
Подвыборка цветности : 4:2:0
Битовая глубина : 8 бит
Тип развёртки : Прогрессивная
Бит/(Пиксели*Кадры) : 0.214
Размер потока : 7,21 Гбайт (83%)
Библиотека кодирования : x264 core 112 r1834 a51816a
Настройки программы : cabac=1 / ref=4 / deblock=1:1:1 / analyse=0x3:0x133 / me=umh / subme=8 / psy=1 / psy_rd=1.00:0.15 / mixed_ref=1 / me_range=16 / chroma_me=1 / trellis=1 / 8x8dct=1 / cqm=0 / deadzone=21,11 / fast_pskip=1 / chroma_qp_offset=-3 / threads=6 / sliced_threads=0 / nr=0 / decimate=1 / interlaced=0 / constrained_intra=0 / bframes=8 / b_pyramid=1 / b_adapt=2 / b_bias=0 / direct=3 / weightb=1 / open_gop=0 / weightp=2 / keyint=250 / keyint_min=23 / scenecut=40 / intra_refresh=0 / rc_lookahead=50 / rc=crf / mbtree=1 / crf=18.0 / qcomp=0.60 / qpmin=0 / qpmax=51 / qpstep=4 / ip_ratio=1.40 / aq=1:1.00
Основные цвета : BT.709-5, BT.1361, IEC 61966-2-4, SMPTE RP177
Характеристики трансфера : BT.709-5, BT.1361
Коэффициенты матрицы : BT.709-5, BT.1361, IEC 61966-2-4 709, SMPTE RP177
Аудио #1
Идентификатор : 2
Формат : AC-3
Формат/Информация : Audio Coding 3
Расширение режима : CM (complete main)
Режим смешивания : Header stripping
Идентификатор кодека : A_AC3
Продолжительность : 1 ч. 36 м.
Вид битрейта : Постоянный
Битрейт : 384 Кбит/сек
Канал(ы) : 6 канала(ов)
Расположение каналов : Front: L C R, Side: L R, LFE
Частота : 48,0 КГц
Битовая глубина : 16 бит
Метод сжатия : С потерями
Размер потока : 266 Мбайт (3%)
Язык : Russian
Аудио #2
Идентификатор : 3
Формат : DTS
Формат/Информация : Digital Theater Systems
Профиль формата : MA / Core
Режим смешивания : Header stripping
Идентификатор кодека : A_DTS
Продолжительность : 1 ч. 36 м.
Вид битрейта : Переменный
Битрейт : 1561 Кбит/сек / 1510 Кбит/сек
Канал(ы) : 6 канала(ов)
Расположение каналов : Front: L C R, Side: L R, LFE
Частота : 48,0 КГц
Битовая глубина : 24 бит
Метод сжатия : Без потерь / Lossy
Язык : English
Текст #1
Идентификатор : 4
Формат : UTF-8
Идентификатор кодека : S_TEXT/UTF8
Идентификатор кодека/Информация : UTF-8 Plain Text
Язык : Russian
Текст #2
Идентификатор : 5
Формат : PGS
Режим смешивания : zlib
Идентификатор кодека : S_HDMV/PGS
Идентификатор кодека/Информация : The same subtitle format used on BDs/HD-DVDs
Язык : English
Меню
00:00:00.000 : :Глава 1
00:10:52.026 : :Глава 2
00:20:10.376 : :Глава 3
00:30:07.097 : :Глава 4
00:40:01.274 : :Глава 5
00:49:57.786 : :Глава 6
01:00:34.130 : :Глава 7
01:09:45.098 : :Глава 8
01:18:58.108 : :Глава 9
01:28:19.753 : :Глава 10
Внимание! 31.01.2011 торрент перезалит.
Это конечная версия, больше торрент изменяться не будет!
Надеюсь на Ваше понимание.
Извините за неудобства!
Благодарности релизеру (12)

Торрент:

Статус:

Размер:

Зарегистрирован   [ 2012-05-06 21:25 ]

проверено

8.69 GB

 
 Мнение о фильме (8)





Один из самых лучших мультфильмов, которые видел за последнее время! Хоть здесь одни совы в основном, но через пол часа уже об этом не думаешь, а переживаешь как за людей :) 3D тоже великолепное, радует глаз!))
 

Смотрел ребенок сказал что классно
 

хороший мультик
 

Красочный мультик!!!!
 

спасибо, очень порадовало!
 

Хороший мультфильм для просмотра семьей, с детьми.
 

Очень хороший мультик
 

+1