Торренты   
 
 


Цыпленок Цыпа / Chicken Little (Марк Диндал / Mark Dindal) [2005 г., фантастика, комедия, приключения, семейный, мультфильм, Anamorph OverUnder]

Рейтинг 3D:
Пока никто не голосовал
Рейтинг фильма:
Пока никто не голосовал
 
Вы должны быть авторизированы,
чтобы ставить оценки


Цыпленок Цыпа / Chicken Little
Год выпуска: 2005
Страна: США (Walt Disney Pictures)
Жанр: Фантастика, комедия, приключения, семейный, мультфильм
Продолжительность: 01:21:09
Перевод: Профессиональный (полное дублирование)
Режиссер: Марк Диндал / Mark Dindal
В ролях: Зак Брафф, Гарри Маршалл, Don Knotts, Патрик Стюарт, Эми Седарис, Стив Занн, Джоан Кьюсак, Уоллес Шоун, Гарри Ширер
Описание: В основе фильма лежит старая басня про цыпленка, который вопил о том, что небеса падают на землю каждый раз, когда ему на голову падал желудь. Вот уже год, как Цыпленок пытается преодолеть позор своей ошибки (про падающие небеса) и жить как ни в чем не бывало.
Но — увы! — желающих дружить с неудачником немного, и поэтому в товарищах у него ходят такие же изгои, как и он сам. Но однажды действительно случается несчастье — пора бить тревогу! Но кто поверит Цыпленку, ведь он уже опростоволосился однажды…
Теперь будущее планеты зависит от скромных бойцов невидимого фронта: свиненка-акселерата, убогонькой уточки, золотой рыбки-мутанта и Цыпленка, с которым никто не хочет знаться…
Доп. информация: Роли дублировали:
Сергей Уманов, Адриан Ростовский, Валерий Кухарешин, Валерий Никитенко, Ксения Бржезовская ... и другие.
Формат 3d: Anamorph OverUnder
Видео: MPEG4 Video (H264) 1920x1080p 23.976fps 7266 Kbps

Скриншоты


me

General
Complete name : D:\TORRENT\Цыпленок Цыпа.mkv
Format : Matroska
File size : 4.36 GiB
Duration : 1h 21mn
Overall bit rate : 7 696 Kbps
Movie name : 777
Encoded date : UTC 2011-01-23 14:50:48
Writing application : mkvmerge v4.1.1 ('Bouncin' Back') сборка от Jul 3 2010 22:54:08
Writing library : libebml v1.0.0 + libmatroska v1.0.0
Video
ID : 1
Format : AVC
Format/Info : Advanced Video Codec
Format profile : High@L4.0
Format settings, CABAC : Yes
Format settings, ReFrames : 3 frames
Muxing mode : Container profile=Unknown@4.0
Codec ID : V_MPEG4/ISO/AVC
Duration : 1h 21mn
Bit rate : 7 095 Kbps
Nominal bit rate : 7 266 Kbps
Width : 1 920 pixels
Height : 1 080 pixels
Display aspect ratio : 16:9
Frame rate : 23.976 fps
Resolution : 8 bits
Colorimetry : 4:2:0
Scan type : Progressive
Bits/(Pixel*Frame) : 0.143
Stream size : 4.02 GiB (92%)
Writing library : x264 core 104 r1683 62997d6
Encoding settings : cabac=1 / ref=3 / deblock=1:0:0 / analyse=0x3:0x133 / me=umh / subme=7 / psy=1 / psy_rd=1.00:0.00 / mixed_ref=1 / me_range=16 / chroma_me=1 / trellis=1 / 8x8dct=1 / cqm=0 / deadzone=21,11 / fast_pskip=1 / chroma_qp_offset=-2 / threads=3 / sliced_threads=0 / nr=0 / decimate=1 / interlaced=0 / constrained_intra=0 / bframes=3 / b_pyramid=0 / b_adapt=1 / b_bias=0 / direct=1 / weightb=1 / open_gop=0 / weightp=2 / keyint=240 / keyint_min=24 / scenecut=40 / intra_refresh=0 / rc_lookahead=40 / rc=2pass / mbtree=1 / bitrate=7266 / ratetol=1.0 / qcomp=0.60 / qpmin=10 / qpmax=51 / qpstep=4 / cplxblur=20.0 / qblur=0.5 / vbv_maxrate=25000 / vbv_bufsize=25000 / ip_ratio=1.40 / aq=1:1.00 / nal_hrd=vbr
Audio
ID : 2
Format : AC-3
Format/Info : Audio Coding 3
Format_Settings_ModeExtension : CM (complete main)
Codec ID : A_AC3
Duration : 1h 21mn
Bit rate mode : Constant
Bit rate : 448 Kbps
Channel(s) : 6 channels
Channel positions : Front: L C R, Side: L R, LFE
Sampling rate : 48.0 KHz
Stream size : 260 MiB (6%)
Благодарности релизеру (0)

Торрент:

Статус:

Размер:

Зарегистрирован   [ 2011-01-24 22:31 ]

проверено

4.36 GB

 
Комментарии:





Спасибо. Неовад ты из Белоруссии?
 

Стесняюсь спросить, это уже Блюрик выпустили :)
Или это рип с ТВрипа :)
Уточните пожалуйста что за рип и ссылку на источник.
Если не сложно.
Спасибо.
 

Видео: MPEG4 Video (H264) 1920x1080p 23.976fps 8763 Kbps
А в медиа инфо: Bit rate : 7 095 Kbps
что-то не сходится.
 

Подправил. Восстановил поток из http://torrents3d.ru/viewtopic.php?t=918 до полноценного прогрессива рекомбинацией нужных полей (лучше чем деинтерлейсинг с потерями разрешения) и выкинул повторяющийся каждый пятый кадр 29,97->23,976
В первый раз http://torrents3d.ru/viewtopic.php?t=1059 я с продолжительностью накосячил - обрезал случайно перед упаковкой, а теперь весь нормально перепаковал
 

Сравнил свои скрины с Вашего релиза с исходником - впервые вижу, чтобы выходной файл был настолько лучше исходника! Только цвета стали чуть менее насыщенными.
Большое спасибо!
Сравнение: http://screenshotcomparison.com/comparison/22891
 

впервые вижу, чтобы выходной файл был настолько лучше исходника!
Хе-хе-хе. Как говорится ловкость рук и никакого мошенства. Если еще будут косячно интерлейсные ТВ рипы без ожидаемых блюреев постараюсь переделывать - это совсем легко - не то что покадровая синхронизация 3D и 2D версий старых фильмов, перегнаных в NTSC
 

СПАСИБО !!!
 

Закиньте пожалуйста Цыпу в анаглифе.
 

Не понимаю, зачем закидывать в анаглифе, если можно самому через любой плеер (stereoscopic player) смотреть в том формате, какой тебе нужен?
 

Топик был перенесен из форума Фильмы в форум Мультфильмы

Dag13
 

Топик был перенесен из форума Мультфильмы в форум Архив

Dag13