Торренты   
 
 


Люди Икс: Дни минувшего будущего / X-Men: Days of Future Past (Брайан Сингер) [2014 г., Anamorph OverUnder]

Рейтинг 3D:
14 голосов
6.7
Рейтинг фильма:
15 голосов
7.5
 
Вы должны быть авторизированы,
чтобы ставить оценки



Люди Икс: Дни минувшего будущего / X-Men: Days of Future Past
Год выпуска: 2014
Страна: США, Великобритания (20th Century Fox, TSG Entertainment, Bad Hat Harry, Marvel)
Жанр: фантастика, боевик, триллер, приключения
Продолжительность: 2:11:35
Перевод: Профессиональный (полное дублирование)
Режиссер: Брайан Сингер
В ролях: Хью Джекман, Иэн МакКеллен, Патрик Стюарт, Холли Берри, Майкл Фассбендер, Джеймс МакЭвой, Анна Пакуин, Эллен Пейдж, Шон Эшмор, Дженнифер Лоуренс, Николас Холт, Питер Динклэйдж, Омар Си, Бинбин Фань
Описание: В недалёком будущем мутанты близки к истреблению роботами-охотниками на мутантов Стражами. Единственная надежда для мутантов выжить — предотвратить череду роковых событий, приведших к появлению Стражей. С помощью своих способностей, Китти Прайд перемещает сознание Росомахи в его молодое тело в 1973 год. В прошлом всё оказывается не так радужно: молодой Профессор Икс окончательно разочарован в своих идеях, Магнето содержится в тюрьме глубоко под землёй, а человечество не знает как реагировать на широкое появление мутантов…
Качество: BDrip
Контейнер: MKV
Формат 3D: Anamorph OverUnder / Вертикальная анаморфная стереопара
Порядок ракурсов: левый ракурс первый
Видео кодек: x264
Аудио кодек: AC-3
Видео: AVC, High@L4.1, 1920х1080, 23,976 кадра/сек, 9063 Кбит/сек
Аудио:
48 kHz, AC3 Dolby Digital, 5/1 ch, ~640.00 kbps avg |Russian| |Дубляж, CEE|
48 kHz, AC3 Dolby Digital, 5/1 ch, ~640.00 kbps avg |English|
Cубтитры: Русские, английские

Скриншоты

Media Info

Общее
Уникальный идентификатор : 221082087223845029658621150068373683962 (0xA652DC7749F20678B43B83EAF5C77EFA)
Полное имя : H:\Source\X-Men.DaysOfFuturePast.3D.2014.BDrip.Half.OU.x264.AC3.(itsamna).mkv
Формат : Matroska
Версия формата : Version 4 / Version 2
Размер файла : 9,70 Гбайт
Продолжительность : 2 ч. 11 м.
Общий поток : 10,6 Мбит/сек
Название фильма : X-Men: Days of Future Past 3D (2014) rip by itsamna aka StarStranger (release 3D-RuGroup)
Дата кодирования : UTC 2014-10-04 06:25:49
Программа кодирования : mkvmerge v6.8.0 ('Theme for Great Cities') 32bit built on Mar 2 2014 21:27:07
Библиотека кодирования : libebml v1.3.0 + libmatroska v1.4.1
Видео
Идентификатор : 1
Формат : AVC
Формат/Информация : Advanced Video Codec
Профиль формата : High@L4.1
Параметр CABAC формата : Да
Параметр ReFrames формата : 4 кадра
Идентификатор кодека : V_MPEG4/ISO/AVC
Продолжительность : 2 ч. 11 м.
Битрейт : 9063 Кбит/сек
Ширина : 1920 пикселей
Высота : 1080 пикселей
Соотношение сторон : 16:9
Режим частоты кадров : Постоянный
Частота кадров : 23,976 кадра/сек
Цветовое пространство : YUV
Субдискретизация насыщенности : 4:2:0
Битовая глубина : 8 бит
Тип развёртки : Прогрессивная
Бит/(Пиксели*Кадры) : 0.182
Размер потока : 8,33 Гбайт (86%)
Библиотека кодирования : x264 core 130 r2273 b3065e6
Настройки программы : cabac=1 / ref=4 / deblock=1:-3:-3 / analyse=0x3:0x133 / me=umh / subme=10 / psy=1 / psy_rd=1.00:0.15 / mixed_ref=1 / me_range=32 / chroma_me=1 / trellis=2 / 8x8dct=1 / cqm=0 / deadzone=21,11 / fast_pskip=0 / chroma_qp_offset=-3 / threads=12 / lookahead_threads=2 / sliced_threads=0 / nr=0 / decimate=1 / interlaced=0 / bluray_compat=0 / constrained_intra=0 / bframes=8 / b_pyramid=2 / b_adapt=2 / b_bias=0 / direct=3 / weightb=1 / open_gop=0 / weightp=2 / keyint=250 / keyint_min=23 / scenecut=40 / intra_refresh=0 / rc_lookahead=60 / rc=crf / mbtree=1 / crf=17.0 / qcomp=0.60 / qpmin=0 / qpmax=69 / qpstep=4 / vbv_maxrate=50000 / vbv_bufsize=62500 / crf_max=0.0 / nal_hrd=none / ip_ratio=1.40 / aq=1:0.90
Default : Да
Forced : Нет
Аудио #1
Идентификатор : 2
Формат : AC-3
Формат/Информация : Audio Coding 3
Расширение режима : CM (complete main)
Параметр Endianness формата : Big
Идентификатор кодека : A_AC3
Продолжительность : 2 ч. 11 м.
Вид битрейта : Постоянный
Битрейт : 640 Кбит/сек
Каналы : 6 каналов
Расположение каналов : Front: L C R, Side: L R, LFE
Частота : 48,0 КГц
Битовая глубина : 16 бит
Метод сжатия : С потерями
Размер потока : 602 Мбайт (6%)
Заголовок : BD 3D CEE
Язык : Russian
Default : Да
Forced : Нет
Аудио #2
Идентификатор : 3
Формат : AC-3
Формат/Информация : Audio Coding 3
Расширение режима : CM (complete main)
Параметр Endianness формата : Big
Идентификатор кодека : A_AC3
Продолжительность : 2 ч. 11 м.
Вид битрейта : Постоянный
Битрейт : 640 Кбит/сек
Каналы : 6 каналов
Расположение каналов : Front: L C R, Side: L R, LFE
Частота : 48,0 КГц
Битовая глубина : 16 бит
Метод сжатия : С потерями
Размер потока : 602 Мбайт (6%)
Заголовок : Original - BD 3D CEE
Язык : English
Default : Нет
Forced : Нет
Текст #1
Идентификатор : 4
Формат : UTF-8
Идентификатор кодека : S_TEXT/UTF8
Идентификатор кодека/Информация : UTF-8 Plain Text
Заголовок : Форсированные (iTunes)
Язык : Russian
Default : Да
Forced : Нет
Текст #2
Идентификатор : 5
Формат : UTF-8
Идентификатор кодека : S_TEXT/UTF8
Идентификатор кодека/Информация : UTF-8 Plain Text
Заголовок : Полные (iTunes) i
Язык : Russian
Default : Нет
Forced : Нет
Текст #3
Идентификатор : 6
Формат : UTF-8
Идентификатор кодека : S_TEXT/UTF8
Идентификатор кодека/Информация : UTF-8 Plain Text
Заголовок : Форсированные (выборка из iTunes)
Язык : Ukrainian
Default : Нет
Forced : Нет
Текст #4
Идентификатор : 7
Формат : UTF-8
Идентификатор кодека : S_TEXT/UTF8
Идентификатор кодека/Информация : UTF-8 Plain Text
Заголовок : Полные (iTunes) i
Язык : Ukrainian
Default : Нет
Forced : Нет
Текст #5
Идентификатор : 8
Формат : UTF-8
Идентификатор кодека : S_TEXT/UTF8
Идентификатор кодека/Информация : UTF-8 Plain Text
Заголовок : Forced (iTunes)
Язык : English
Default : Нет
Forced : Нет
Текст #6
Идентификатор : 9
Формат : UTF-8
Идентификатор кодека : S_TEXT/UTF8
Идентификатор кодека/Информация : UTF-8 Plain Text
Заголовок : Full (iTunes) i
Язык : English
Default : Нет
Forced : Нет
Меню
00:00:00.000 : :1
00:03:33.338 : :2
00:08:00.689 : :3
00:10:28.628 : :4
00:13:58.046 : :5
00:17:02.021 : :6
00:20:16.090 : :7
00:22:11.330 : :8
00:26:37.888 : :9
00:30:32.039 : :10
00:34:29.776 : :11
00:36:00.992 : :12
00:38:18.087 : :13
00:40:37.101 : :14
00:45:53.793 : :15
00:48:53.848 : :16
00:51:58.157 : :17
00:54:43.113 : :18
00:57:51.426 : :19
01:00:48.186 : :20
01:03:26.594 : :21
01:07:09.567 : :22
01:09:43.596 : :23
01:13:11.470 : :24
01:15:31.861 : :25
01:17:27.726 : :26
01:19:30.099 : :27
01:24:50.711 : :28
01:26:58.255 : :29
01:31:04.250 : :30
01:34:03.680 : :31
01:37:33.181 : :32
01:41:54.817 : :33
01:44:52.995 : :34
01:47:19.808 : :35
01:51:29.766 : :36
01:56:42.746 : :37
02:00:12.414 : :38
02:02:34.973 : :39
02:10:31.907 : :40
--Релиз группы:

Проверено на встроенном плейере ТВ LG 42LW4500
--
Благодарности релизеру (22)

Торрент:

Статус:

Размер:

Зарегистрирован   [ 2014-10-04 10:58 ]

проверено

9.7 GB

 
 Мнение о фильме (5)





Как киноха?люди!
 

hard, Это о чем? О сценаристе???
Фильм на уровне серий. Смотрел росомаху в 3Д- зачем оно там не понял. Этот смотрел в 2Д...за исключением пары сцен которые делались явно под 3Д, картинка к 3Д не располагает, так что в 3Д пересматривать не буду...ИМХО, в 3Д мульты смотреть.
 

Весь фильм представляет из себя какую-то бестолковую мешанину. Еле досмотрел со второй попытки, причем перешел в 2д. Зачем этот бред было делать в 3д, непонятно.
 

Спасибо за релиз
 

Смотрел в 3d через проектор. Нормально тут все с 3d. Из-за негативных отзывов сомневался еще смотреть или нет в 3d. Сюжет довольно интересный, бывает куда хуже), хорошие спецэффекты, присутствует оригинальный экшен). Кому близка тема супергероев должно понравиться. Тор 2 недавно смотрел в 3d, тоже обосрали 3d, а по факту все на уровне.