Торренты   
 
 


Кошмар перед Рождеством 3D / The Nightmare Before Christmas 3D (Генри Селик) [1993 г, Anamorph SideBySide, 1080i]

Рейтинг 3D:
Пока никто не голосовал
Рейтинг фильма:
Пока никто не голосовал
 
Вы должны быть авторизированы,
чтобы ставить оценки


Кошмар перед Рождеством 3D / The Nightmare Before Christmas 3D
Год выпуска: 1993
Страна: США
Жанр: фэнтези, мюзикл, семейный, мультфильм
Продолжительность: 01:13:26
Перевод: Профессиональный (полное дублирование)
Режиссер: Генри Селик
В ролях: Дэнни Элфмэн, Крис Сарандон, Катрин О`Хара, Уильям Хикки, Гленн Шэдикс, Пол Рубенс, Кен Пейдж, Эд Айвори, Сьюзэн МакБрайд, Деби Дерст
Описание: Мультфильм рассказывает о царстве Хэллоуин, царстве страхов и кошмаров, где живут мертвецы, уродцы, чудовища во главе с царем ужасов Джеком Скелингтоном. Под рождество Джек случайно попадает в город Рождества, где узнает, что есть где-то радость, добро и веселье.
Ему страшно захотелось испытать это чувство — дарить людям счастье — и он похитил Сэнди Клауса и занял его место. Результаты были, правда, самые плачевные, да и подарки его никому, мягко говоря, не понравились. Но он все понял и исправил свою ошибку.
Доп. информация:
* Джек Скеллингтон говорит голосом Криса Сарандона, а поет голосом композитора Дэнни Элфмана. Элфман также озвучил еще две роли.
* Впервые Джек появился в фильме Тима Бертона Битлджус (1988). Он вертится на карусели, которая устроилась на экстравагантной шляпе Битлджуса.
* Две игрушки – злая утка на колесах и дикая кошка – «прибыли» из фильма Тима Бертона Бэтман возвращается (1992).
* Селик снял «Кошмар перед Рождеством» по мотивам стихотворения Тима Бертона.
* Изначально в качестве режиссёра мультфильма должен был выступать Тим Бёртон. Из-за занятости Бёртона над проектом «Бэтмен Возвращается» на этот пост был назначен Генри Селик.
* В немецкой версии мультфильма партию Салли перепевает знаменитая панк-дива Нина Хаген.
Это Копипаст
Формат 3d: Anamorph SideBySide

MediaInfo

Format : MPEG-TS
File size : 9.52 GiB
Duration : 1h 13mn
Overall bit rate : 18.6 Mbps
Maximum Overall bit rate : 35.5 Mbps
Video
ID : 4113 (0x1011)
Menu ID : 1 (0x1)
Format : AVC
Format/Info : Advanced Video Codec
Format profile : Main@L4.0
Format settings, CABAC : Yes
Format settings, ReFrames : 3 frames
Format settings, GOP : M=1, N=14
Codec ID : 27
Duration : 1h 13mn
Bit rate mode : Variable
Bit rate : 16.2 Mbps
Maximum bit rate : 40.0 Mbps
Width : 1 920 pixels
Height : 1 080 pixels
Display aspect ratio : 16:9
Frame rate : 25.000 fps
Standard : Component
Color space : YUV
Chroma subsampling : 4:2:0
Bit depth : 8 bits
Scan type : Interlaced
Scan order : Top Field First
Bits/(Pixel*Frame) : 0.312
Stream size : 8.29 GiB (87%)
Color primaries : BT.709-5, BT.1361, IEC 61966-2-4, SMPTE RP177
Transfer characteristics : BT.709-5, BT.1361
Matrix coefficients : BT.709-5, BT.1361, IEC 61966-2-4 709, SMPTE RP177
Audio #1
ID : 4352 (0x1100)
Menu ID : 1 (0x1)
Format : AC-3
Format/Info : Audio Coding 3
Mode extension : CM (complete main)
Codec ID : 129
Duration : 1h 13mn
Bit rate mode : Constant
Bit rate : 384 Kbps
Channel(s) : 6 channels
Channel positions : Front: L C R, Side: L R, LFE
Sampling rate : 48.0 KHz
Bit depth : 16 bits
Stream size : 202 MiB (2%)
Language : Russian
Audio #2
ID : 4353 (0x1101)
Menu ID : 1 (0x1)
Format : AC-3
Format/Info : Audio Coding 3
Mode extension : CM (complete main)
Codec ID : 129
Duration : 1h 13mn
Bit rate mode : Constant
Bit rate : 448 Kbps
Channel(s) : 2 channels
Channel positions : Front: L R
Sampling rate : 48.0 KHz
Bit depth : 16 bits
Stream size : 235 MiB (2%)
Language : Russian
Audio #3
ID : 4354 (0x1102)
Menu ID : 1 (0x1)
Format : AC-3
Format/Info : Audio Coding 3
Mode extension : CM (complete main)
Codec ID : 129
Duration : 1h 13mn
Bit rate mode : Constant
Bit rate : 640 Kbps
Channel(s) : 6 channels
Channel positions : Front: L C R, Side: L R, LFE
Sampling rate : 48.0 KHz
Bit depth : 16 bits
Video delay : 16ms
Stream size : 336 MiB (3%)
Language : English

Скриншоты



Благодарности релизеру (0)

Торрент:

Статус:

Размер:

Зарегистрирован   [ 2011-01-26 21:33 ]

проверено

9.52 GB