Торренты   
 
 

 

Пила VII 3Д (Полная версия) / Saw 3D Final Capter (unrated) (Кевин Гротерт) [2010 г., BDRip 1080p, Anamorph OverUnder]

Рейтинг 3D:
16 голосов
8.6
Рейтинг фильма:
17 голосов
8.8
 
Вы должны быть авторизированы,
чтобы ставить оценки


Пила VII 3Д (Полная версия) / Saw 3D Final Capter (unrated)- Год выпуска: 2010
Страна: США
Жанр: ужасы, триллер, детектив
Продолжительность: 01:30:11
Перевод: Профессиональный (полное дублирование)
Русские субтитры: отсутствуют-Режиссер: Кевин Гротерт
В ролях: Костас Мэндилор (Det. Mark Hoffman), Шон Патрик Флэнери (Bobby Dagen), Тобин Белл (Jigsaw / John Kramer), Кэри Элвис (Dr. Lawrence Gordon), Бетси Расселл (Jill Tuck), Дин Армстронг (Cale), Чэд Донелла (Det. Matt Gibson), Джина Холден (Joyce Dagen), Наоми Сникус (Nina), Ребекка Маршалл (Suzanne), Джеймс Ван Паттен (Dr. Heffner), Себастьян Пижотт (Brad)
Описание фильма: Жертвы Пилы, выжившие в предыдущих испытаниях, обращаются за психологической помощью к товарищу по несчастью Бобби Дагену. Но когда его собственные темные тайны всплывают на свет, развязывается новая волна террора-Релиз группы:

Качество: BDRip
Формат: MKV
Формат 3d: Anamorph OverUnder / Вертикальная анаморфная стереопара
Порядок ракурсов: Левый ракурс первый (верхний)
Видео кодек: H264
Аудио кодек: AC-3
Видео: MPEG4 Video (H264) / 1920х1080 / 23.98fps / 20,7 Мбит/сек
Аудио 1: Rus AC-3 / 5.1 / 16 бит / 640 Кбит/сек (Вшитый)
Аудио 2: Eng AC-3 / 5.1 / 16 бит / 640 Кбит/сек (Отдельным файлом)-Лучшее "спасибо" - скачать сэмпл...

Скриншоты



Gif анимация

Медиа инфо

Общее
Уникальный идентификатор : 182930993730132038380076734552600864242 (0x899F3A54E930AF39977D9D419DF5E5F2)
Полное имя :Saw 7_Half_OU\Saw 7_Half_OU.mkv
Формат : Matroska
Версия формата : Version 2
Размер файла : 13,1 Гбайт
Продолжительность : 1 ч. 30 м.
Общий поток : 20,7 Мбит/сек
Дата кодирования : UTC 2011-11-21 16:05:15
Программа кодирования : mkvmerge v5.0.0 ('Die Wahre Liebe') built on Sep 25 2011 20:33:49
Библиотека кодирования : libebml v1.2.2 + libmatroska v1.3.0
Видео
Идентификатор : 1
Формат : AVC
Формат/Информация : Advanced Video Codec
Профиль формата : High@L4.1
Параметр CABAC формата : Да
Параметр ReFrames формата : 4 кадра
Идентификатор кодека : V_MPEG4/ISO/AVC
Продолжительность : 1 ч. 30 м.
Битрейт : 19,7 Мбит/сек
Ширина : 1920 пикселей
Высота : 1080 пикселей
Соотношение сторон : 16:9
Частота кадров : 23,976 кадра/сек
Цветовое пространство : YUV
Субдискретизация насыщенности : 4:2:0
Битовая глубина : 8 бит
Тип развёртки : Прогрессивная
Бит/(Пиксели*Кадры) : 0.396
Размер потока : 12,4 Гбайт (95%)
Заголовок : BDRip by TopGun
Библиотека кодирования : x264 core 116 r2074 2641b9e
Настройки программы : cabac=1 / ref=4 / deblock=1:-3:-3 / analyse=0x3:0x133 / me=umh / subme=9 / psy=1 / psy_rd=1.00:0.20 / mixed_ref=1 / me_range=16 / chroma_me=1 / trellis=2 / 8x8dct=1 / cqm=0 / deadzone=21,11 / fast_pskip=1 / chroma_qp_offset=-3 / threads=6 / sliced_threads=0 / nr=0 / decimate=1 / interlaced=0 / bluray_compat=0 / constrained_intra=0 / bframes=7 / b_pyramid=2 / b_adapt=2 / b_bias=0 / direct=3 / weightb=1 / open_gop=0 / weightp=2 / keyint=250 / keyint_min=23 / scenecut=40 / intra_refresh=0 / rc_lookahead=40 / rc=crf / mbtree=1 / crf=18.0 / qcomp=0.70 / qpmin=10 / qpmax=69 / qpstep=4 / vbv_maxrate=40000 / vbv_bufsize=30000 / crf_max=0.0 / nal_hrd=none / ip_ratio=1.40 / aq=1:0.70
Default : Да
Forced : Нет
Аудио
Идентификатор : 2
Формат : AC-3
Формат/Информация : Audio Coding 3
Расширение режима : CM (complete main)
Идентификатор кодека : A_AC3
Продолжительность : 1 ч. 30 м.
Вид битрейта : Постоянный
Битрейт : 640 Кбит/сек
Каналы : 6 каналов
Расположение каналов : Front: L C R, Side: L R, LFE
Частота : 48,0 КГц
Битовая глубина : 16 бит
Метод сжатия : С потерями
Размер потока : 413 Мбайт (3%)
Заголовок : Дубляж AC3 640 кбит/сек
Язык : Russian
Default : Да
Forced : Нет
Меню
00:00:00.000 : :1. Public Announcement
00:05:13.480 : :2. Love Triangle
00:12:58.653 : :3. Reborn
00:17:16.786 : :4. Worst Nightmare
00:22:07.743 : :5. Finding The Positive
00:27:29.231 : :6. Expecting You
00:36:06.956 : :7. New Game
00:43:04.207 : :8. We've Met
00:47:54.413 : :9. Hold On
00:52:00.826 : :10. Hears No Evil
00:57:09.926 : :11. Beyond The Crossroads
01:03:09.077 : :12. I Lied
01:10:28.891 : :13. Back In Action
01:14:13.574 : :14. Now Do I Look ?
01:19:01.153 : :15. Time's Up
01:23:47.189 : :16. Game Over
Внимание! Торрент перезалит! 21.11.2011 20:30 МСК.
Изменено расположение ракурсов.
Заменен видеоряд на более качественный, заменены аудио дорожки.

Внимание! У кого на ТВ не показывает, не прет, не воспроизводит, не кажет, итд... прогоняем через MKVmergeGUI используя за основу эту инструкцию - MKVmergeGUI (инструкция по основным операциям редактирования) - Если не помогает, удаляем главы по этой же инструкции!
Благодарности релизеру (29)

Торрент:

Статус:

Размер:

Зарегистрирован   [ 2012-05-06 21:11 ]

проверено

13.46 GB