Торренты   
 
 

 

Беовульф / Beowulf (Роберт Земекис) [2007 г., Anamorph OverUnder]

Рейтинг 3D:
3 голосов
9.0
Рейтинг фильма:
3 голосов
9.3
 
Вы должны быть авторизированы,
чтобы ставить оценки



Беовульф / Beowulf
Год выпуска: 2007 (2014)
Страна: США (Warner Bros. Pictures, Shangri-La Entertainment, ImageMovers)
Жанр: Мультфильм, Фэнтези, Боевик, Драма, Приключения
Продолжительность: 1:54:13
Перевод: Профессиональный (полное дублирование)
Режиссер: Роберт Земекис
В ролях: Анджелина Джоли, Рэй Уинстон, Энтони Хопкинс, Криспин Гловер, Робин Райт Пенн, Джон Малкович, Элисон Ломан, Брендан Глисон, Доминик Китинг, Себастьян Рош
Описание: События фильма разворачиваются в ту чудесную эпоху, покрытую туманом прошлого, богатую на героев и монстров, приключения и отвагу, богатство и славу, когда одному исключительному человеку по имени Беовульф удается спасти древнее датское королевство от жуткого чудовища, истребляющего его жителей. После этого сей легендарный викинг ростом почти в два метра, полный дерзости, уверенности и удивительной амбициозности, восходит на трон.
Всё чаще в королевстве звучит имя Беовульфа, о нем слагаются песни, восхваляющие его небывалую доблесть и решительность после того, как он приходит на помощь королю Хродгару, чье королевство подвергается вероломным нападкам Гренделя, беспощадного монстра, который мучает и пожирает жителей королевства, заставляя их жить в вечном ожидании страха и опасности.
Избавляя королевство от безжалостного монстра, Беовульф обретает славу и успех. К его ногам оказываются брошены несметные богатства, но непреодолимые искушения подстерегают его повсюду. То, насколько мудро он сможет распорядиться своей новоприобретенной властью, навсегда определит его судьбу как воина, победителя, как лидера, мужа и, что более важно, как человека.
Качество: BDrip
Контейнер: MKV
Формат 3D: Anamorph OverUnder / Вертикальная анаморфная стереопара
Порядок ракурсов: левый ракурс первый
Видео кодек: x264
Аудио кодек: AC-3
Видео: AVC, High@L4.1, 1920х1080, 23,976 кадра/сек, 6486 Кбит/сек
Аудио:
Русский / AC3 / 48 KHz / 5.1 ch / 640 Kbps (Дубляж) [Ash61-edit]
Английский / AC3 / 48 KHz / 5.1 ch / 640 Kbps (Original)
Cубтитры: английские

Скриншоты

Media Info

Общее
Уникальный идентификатор : 243452080997467393103079680710694107152 (0xB7272A4FE5CA6310B51AB1F6803B7810)
Полное имя : H:\Source\Beowulf.3D.2014.BDrip.Half.OU.x264.AC3.(itsamna).mkv
Формат : Matroska
Версия формата : Version 4 / Version 2
Размер файла : 6,32 Гбайт
Продолжительность : 1 ч. 54 м.
Общий поток : 7924 Кбит/сек
Название фильма : Beowulf 3D rip by itsamna aka StarStranger (release 3D-RuGroup)
Дата кодирования : UTC 2014-10-16 13:52:26
Программа кодирования : mkvmerge v6.8.0 ('Theme for Great Cities') 32bit built on Mar 2 2014 21:27:07
Библиотека кодирования : libebml v1.3.0 + libmatroska v1.4.1
Видео
Идентификатор : 1
Формат : AVC
Формат/Информация : Advanced Video Codec
Профиль формата : High@L4.1
Параметр CABAC формата : Да
Параметр ReFrames формата : 4 кадра
Идентификатор кодека : V_MPEG4/ISO/AVC
Продолжительность : 1 ч. 54 м.
Битрейт : 6486 Кбит/сек
Ширина : 1920 пикселей
Высота : 1080 пикселей
Соотношение сторон : 16:9
Режим частоты кадров : Постоянный
Частота кадров : 23,976 кадра/сек
Цветовое пространство : YUV
Субдискретизация насыщенности : 4:2:0
Битовая глубина : 8 бит
Тип развёртки : Прогрессивная
Бит/(Пиксели*Кадры) : 0.130
Размер потока : 5,17 Гбайт (82%)
Библиотека кодирования : x264 core 130 r2273 b3065e6
Настройки программы : cabac=1 / ref=4 / deblock=1:-3:-3 / analyse=0x3:0x133 / me=umh / subme=10 / psy=1 / psy_rd=1.00:0.15 / mixed_ref=1 / me_range=32 / chroma_me=1 / trellis=2 / 8x8dct=1 / cqm=0 / deadzone=21,11 / fast_pskip=0 / chroma_qp_offset=-3 / threads=12 / lookahead_threads=2 / sliced_threads=0 / nr=0 / decimate=1 / interlaced=0 / bluray_compat=0 / constrained_intra=0 / bframes=8 / b_pyramid=2 / b_adapt=2 / b_bias=0 / direct=3 / weightb=1 / open_gop=0 / weightp=2 / keyint=250 / keyint_min=23 / scenecut=40 / intra_refresh=0 / rc_lookahead=60 / rc=crf / mbtree=1 / crf=17.0 / qcomp=0.60 / qpmin=0 / qpmax=69 / qpstep=4 / vbv_maxrate=50000 / vbv_bufsize=62500 / crf_max=0.0 / nal_hrd=none / ip_ratio=1.40 / aq=1:0.90
Default : Да
Forced : Нет
Аудио #1
Идентификатор : 2
Формат : AC-3
Формат/Информация : Audio Coding 3
Расширение режима : CM (complete main)
Параметр Endianness формата : Big
Идентификатор кодека : A_AC3
Продолжительность : 1 ч. 54 м.
Вид битрейта : Постоянный
Битрейт : 640 Кбит/сек
Каналы : 6 каналов
Расположение каналов : Front: L C R, Side: L R, LFE
Частота : 48,0 КГц
Битовая глубина : 16 бит
Метод сжатия : С потерями
Размер потока : 523 Мбайт (8%)
Заголовок : Дубляж - BD 2D (Ash61-edit)
Язык : Russian
Default : Да
Forced : Нет
Аудио #2
Идентификатор : 3
Формат : AC-3
Формат/Информация : Audio Coding 3
Расширение режима : CM (complete main)
Параметр Endianness формата : Big
Идентификатор кодека : A_AC3
Продолжительность : 1 ч. 54 м.
Вид битрейта : Постоянный
Битрейт : 640 Кбит/сек
Каналы : 6 каналов
Расположение каналов : Front: L C R, Side: L R, LFE
Частота : 48,0 КГц
Битовая глубина : 16 бит
Метод сжатия : С потерями
Размер потока : 523 Мбайт (8%)
Заголовок : Original - BD 3D
Язык : English
Default : Нет
Forced : Нет
Текст
Идентификатор : 4
Формат : UTF-8
Идентификатор кодека : S_TEXT/UTF8
Идентификатор кодека/Информация : UTF-8 Plain Text
Язык : English
Default : Да
Forced : Нет
Меню
00:00:00.000 : :1
00:05:22.197 : :2
00:11:33.109 : :3
00:16:56.307 : :4
00:21:00.384 : :5
00:28:21.491 : :6
00:33:44.439 : :7
00:37:41.468 : :8
00:43:30.817 : :9
00:48:42.128 : :10
00:52:04.121 : :11
00:55:14.811 : :12
01:02:08.892 : :13
01:08:12.297 : :14
01:12:36.727 : :15
01:18:50.893 : :16
01:23:30.130 : :17
01:26:20.759 : :18
01:30:49.944 : :19
01:33:52.544 : :20
01:37:39.687 : :21
01:42:22.970 : :22
01:45:23.817 : :23
--Релиз группы:

Проверено на встроенном плейере ТВ LG 42LW4500
--
Благодарности релизеру (13)

Торрент:

Статус:

Размер:

Зарегистрирован   [ 2014-10-17 08:21 ]

проверено

6.32 GB