Торренты   
 
 

 

Беовульф в 3Д / Beowulf 3D (Роберт Земекис / Robert Zemeckis) [2007, Мультфильм, Фэнтези, Боевик, Драма, Приключения, BDrip, 1080p]Full OverUnder / Вертикальная стереопара

Рейтинг 3D:
3 голосов
7.3
Рейтинг фильма:
3 голосов
9.0
 
Вы должны быть авторизированы,
чтобы ставить оценки


Беовульф / Beowulf
Год выпуска: 2007
Страна: США (Warner Bros. Pictures, Shangri-La Entertainment, ImageMovers)
Жанр: Мультфильм, Фэнтези, Боевик, Драма, Приключения
Продолжительность: 1:54:13
Перевод: Профессиональный дублированный (Blu-Ray 2D)
Русские субтитры: нет
Режиссер: Роберт Земекис / Robert Zemeckis
В ролях: Элисон Ломан, Крис Коппола, Анджелина Джоли, Брендан Глисон, Энтони Хопкинс, Грег Эллис, Рэй Уинстон, Криспин Гловер, Вуди Шульц, Джон Малкович, Ник Джеймисон, Себастьян Роше, Шарлотт Солт, Шэй Даффин, Эмили Джонсон, Робин Райт, Доминик Китинг
Описание: События фильма разворачиваются в ту чудесную эпоху, покрытую туманом прошлого, богатую на героев и монстров, приключения и отвагу, богатство и славу, когда одному исключительному человеку по имени Беовульф удается спасти древнее датское королевство от жуткого чудовища, истребляющего его жителей. После этого сей легендарный викинг ростом почти в два метра, полный дерзости, уверенности и удивительной амбициозности, восходит на трон.
Всё чаще в королевстве звучит имя Беовульфа, о нем слагаются песни, восхваляющие его небывалую доблесть и решительность после того, как он приходит на помощь королю Хродгару, чье королевство подвергается вероломным нападкам Гренделя, беспощадного монстра, который мучает и пожирает жителей королевства, заставляя их жить в вечном ожидании страха и опасности.
Избавляя королевство от безжалостного монстра, Беовульф обретает славу и успех. К его ногам оказываются брошены несметные богатства, но непреодолимые искушения подстерегают его повсюду. То, насколько мудро он сможет распорядиться своей новоприобретенной властью, навсегда определит его судьбу как воина, победителя, как лидера, мужа и, что более важно, как человека.
Сэмпл: http://sendfile.su/1036222
Качество: BDrip
Контейнер: MKV
Формат 3D: OverUnder / Вертикальная стереопара
Порядок ракурсов: левый ракурс первый
Видео кодек: x264
Аудио кодек: AC3
Видео: AVC / High@L5.0 / 23,976 fps / 1920х1600 / 10,0 Мбит/сек
Аудио: Русский / AC3 / 48 KHz / 5.1 ch / 640 Кбит/сек (Дубляж - BD 2D) [Ash61-edit]
Аудио 2: Английский / AC3 / 48 KHz / 5.1 ch / 640 Кбит/сек
Релиз группы: ВНИМАНИЕ ! На встроенных ТВ-плеерах работать не будет!!!
ТВ Samsung в названии которого есть надпись Ultra HD воспроизводят полные стереопары встроенными плеерами
Железные плееры на которых воспроизводятся полные стереопары:Popcorn C-200 , Dune HD Smart D1 , Dune HD DUO , Dune HD Smart H1 , Dune HD Smart B1 , Dune HD Max , Dune HD TV-303D , Dune HD Base 3D

MediaInfo

Общее
Уникальный идентификатор : 180986301612660008528533511494338555781 (0x8828B19B907320599628C907C6E32F85)
Полное имя : E:\закачки\Beowulf.Rip by SeRoGa00.mkv
Формат : Matroska
Версия формата : Version 2
Размер файла : 9,18 Гбайт
Продолжительность : 1 ч. 54 м.
Общий поток : 11,5 Мбит/сек
Дата кодирования : UTC 2014-10-17 13:09:17
Программа кодирования : mkvmerge v3.4.0 ('Rapunzel') сборка от May 15 2010 09:38:20
Библиотека кодирования : libebml v0.8.0 + libmatroska v0.9.0
Видео
Идентификатор : 1
Формат : AVC
Формат/Информация : Advanced Video Codec
Профиль формата : High@L5.0
Параметр CABAC формата : Да
Параметр ReFrames формата : 4 кадра
Идентификатор кодека : V_MPEG4/ISO/AVC
Продолжительность : 1 ч. 54 м.
Битрейт : 10,0 Мбит/сек
Ширина : 1920 пикселей
Высота : 1600 пикселей
Соотношение сторон : 1,200
Частота кадров : 23,976 кадра/сек
Цветовое пространство : YUV
Субдискретизация насыщенности : 4:2:0
Битовая глубина : 8 бит
Тип развёртки : Прогрессивная
Бит/(Пиксели*Кадры) : 0.136
Размер потока : 7,98 Гбайт (87%)
Заголовок : Rip by SeRoGa00
Библиотека кодирования : x264 core 142 r2431 ac76440
Настройки программы : cabac=1 / ref=4 / deblock=1:-3:-3 / analyse=0x3:0x113 / me=umh / subme=9 / psy=1 / psy_rd=1.00:0.15 / mixed_ref=1 / me_range=24 / chroma_me=1 / trellis=2 / 8x8dct=1 / cqm=0 / deadzone=21,11 / fast_pskip=1 / chroma_qp_offset=-3 / threads=9 / lookahead_threads=1 / sliced_threads=0 / nr=0 / decimate=1 / interlaced=0 / bluray_compat=0 / constrained_intra=0 / bframes=8 / b_pyramid=2 / b_adapt=2 / b_bias=0 / direct=3 / weightb=1 / open_gop=0 / weightp=2 / keyint=250 / keyint_min=23 / scenecut=40 / intra_refresh=0 / rc_lookahead=60 / rc=crf / mbtree=1 / crf=18.0 / qcomp=0.60 / qpmin=10 / qpmax=69 / qpstep=4 / vbv_maxrate=30000 / vbv_bufsize=30000 / crf_max=0.0 / nal_hrd=none / filler=0 / ip_ratio=1.40 / aq=1:1.00
Язык : English
Аудио #1
Идентификатор : 2
Формат : AC-3
Формат/Информация : Audio Coding 3
Расширение режима : CM (complete main)
Идентификатор кодека : A_AC3
Продолжительность : 1 ч. 54 м.
Вид битрейта : Постоянный
Битрейт : 640 Кбит/сек
Каналы : 6 каналов
Расположение каналов : Front: L C R, Side: L R, LFE
Частота : 48,0 КГц
Битовая глубина : 16 бит
Метод сжатия : С потерями
Размер потока : 523 Мбайт (6%)
Язык : Russian
Аудио #2
Идентификатор : 3
Формат : AC-3
Формат/Информация : Audio Coding 3
Расширение режима : CM (complete main)
Идентификатор кодека : A_AC3
Продолжительность : 1 ч. 54 м.
Вид битрейта : Постоянный
Битрейт : 640 Кбит/сек
Каналы : 6 каналов
Расположение каналов : Front: L C R, Side: L R, LFE
Частота : 48,0 КГц
Битовая глубина : 16 бит
Метод сжатия : С потерями
Размер потока : 523 Мбайт (6%)
Язык : English

Скриншоты


Благодарности релизеру (6)

Торрент:

Статус:

Размер:

Зарегистрирован   [ 2014-10-17 18:26 ]

проверено

9.18 GB