Торренты   
 
 


Как приручить дракона 2 / How To Train Your Dragon 2 (Дин ДеБлуа) [2014 г., Anamorph OverUnder]

Рейтинг 3D:
Пока никто не голосовал
Рейтинг фильма:
Пока никто не голосовал
 
Вы должны быть авторизированы,
чтобы ставить оценки


Как приручить дракона 2 / How To Train Your Dragon 2
Год выпуска: 2014
Страна: США
Жанр: Мультфильм, фэнтези, комедия, приключения, семейный
Продолжительность: 01:41:55
Перевод: Профессиональный (полное дублирование)
Режиссер: Дин ДеБлуа
В ролях: Джей Барушель, Джона Хилл, Кейт Бланшетт, Джерард Батлер, Джимон Хонсу, Кристофер Минц-Плассе, Кристен Уиг, Кит Харингтон, Америка Феррера, ТиДжей Миллер, Крэйг Фергюсон
Описание: С момента примирения викингов и драконов прошло пять лет. Пока Астрид, Сморкала и остальные ребята проводят время соревнуясь друг с другом в популярных на острове драконьих гонках, Иккинг и Беззубик путешествуют по небу, составляя карту неизвестных мест. Когда одно из их приключений приводит к открытию тайной ледяной пещеры, которая является домом для сотен ранее невиданных диких драконов и таинственного драконьего всадника, два друга оказываются в центре битвы за защиту мира.
Доп. информация: Качество: BDRip (1080p)
Видео: MPEG-4 AVC, 16500 Кбит/с, 1920x1080, 23.976 кадр/с
Аудио: AC3, 6 ch, 448 Кбит/с
Размер: 12.01 ГБ
Продолжительность: 01:41:55
Перевод: Дублированный
Субтитры: Русские, английские, украинские
Формат 3D: Anamorph OverUnder

Скриншоты




MediaInfo

General
Unique ID : 182557497356102871398922467833040792770 (0x89574B89E850E744B127946B06F6ECC2)
Complete name : E:\ How.to.Train.Your.Dragon.2.2014.3D.H-OU.[torrent3d.ru].mkv
Format : Matroska
Format version : Version 2
File size : 12.0 GiB
Duration : 1h 41mn
Overall bit rate : 16.9 Mbps
Movie name : How.to.Train.Your.Dragon.2.2014.3D.H-OU.[torrent3d.ru]
Encoded date : UTC 2014-10-18 06:13:35
Writing application : mkvmerge v4.0.0 ('The Stars were mine') сборка от Jun 6 2010 16:18:42
Writing library : libebml v1.0.0 + libmatroska v1.0.0
Video
ID : 1
Format : AVC
Format/Info : Advanced Video Codec
Format profile : High@L4.1
Format settings, CABAC : Yes
Format settings, ReFrames : 2 frames
Codec ID : V_MPEG4/ISO/AVC
Duration : 1h 41mn
Bit rate : 16.5 Mbps
Width : 1 920 pixels
Height : 1 080 pixels
Display aspect ratio : 16:9
Frame rate mode : Constant
Frame rate : 23.976 fps
Color space : YUV
Chroma subsampling : 4:2:0
Bit depth : 8 bits
Scan type : Progressive
Bits/(Pixel*Frame) : 0.332
Stream size : 11.5 GiB (95%)
Writing library : x264 core 142
Encoding settings : cabac=1 / ref=1 / deblock=1:-1:-1 / analyse=0x3:0 / me=hex / subme=5 / psy=0 / mixed_ref=0 / me_range=16 / chroma_me=1 / trellis=0 / 8x8dct=1 / cqm=0 / deadzone=21,11 / fast_pskip=1 / chroma_qp_offset=0 / threads=8 / lookahead_threads=2 / sliced_threads=0 / nr=0 / decimate=1 / interlaced=0 / bluray_compat=0 / constrained_intra=0 / bframes=2 / b_pyramid=0 / b_adapt=1 / b_bias=0 / direct=1 / weightb=1 / open_gop=0 / weightp=0 / keyint=24 / keyint_min=13 / scenecut=40 / intra_refresh=0 / rc=abr / mbtree=0 / bitrate=16500 / ratetol=1.0 / qcomp=0.60 / qpmin=0 / qpmax=69 / qpstep=4 / ip_ratio=1.40 / pb_ratio=1.30 / aq=1:1.00
Default : No
Forced : No
Color primaries : BT.709
Transfer characteristics : BT.709
Matrix coefficients : BT.709
Audio
ID : 2
Format : AC-3
Format/Info : Audio Coding 3
Mode extension : CM (complete main)
Format settings, Endianness : Big
Codec ID : A_AC3
Duration : 1h 41mn
Bit rate mode : Constant
Bit rate : 448 Kbps
Channel(s) : 6 channels
Channel positions : Front: L C R, Side: L R, LFE
Sampling rate : 48.0 KHz
Bit depth : 16 bits
Compression mode : Lossy
Stream size : 327 MiB (3%)
Language : Russian
Default : Yes
Forced : No
Text #1
ID : 3
Format : PGS
Codec ID : S_HDMV/PGS
Codec ID/Info : The same subtitle format used on BDs/HD-DVDs
Language : Russian
Default : No
Forced : No
Text #2
ID : 4
Format : PGS
Codec ID : S_HDMV/PGS
Codec ID/Info : The same subtitle format used on BDs/HD-DVDs
Language : Ukrainian
Default : No
Forced : No
Text #3
ID : 5
Format : PGS
Codec ID : S_HDMV/PGS
Codec ID/Info : The same subtitle format used on BDs/HD-DVDs
Language : English
Default : No
Forced : No
Menu
00:00:00.000 : en:(01)00:00:00:000
00:03:27.999 : en:(02)00:03:27:999
00:05:20.695 : en:(03)00:05:20:695
00:07:46.007 : en:(04)00:07:46:007
00:10:16.032 : en:(05)00:10:16:032
00:13:16.337 : en:(06)00:13:16:337
00:16:59.059 : en:(07)00:16:59:059
00:20:01.700 : en:(08)00:20:01:700
00:23:43.255 : en:(09)00:23:43:255
00:27:14.466 : en:(10)00:27:14:466
00:29:21.468 : en:(11)00:29:21:468
00:33:41.936 : en:(12)00:33:41:936
00:37:05.473 : en:(13)00:37:05:473
00:39:06.969 : en:(14)00:39:06:969
00:40:59.165 : en:(15)00:40:59:165
00:45:03.992 : en:(16)00:45:03:992
00:47:16.625 : en:(17)00:47:16:625
00:51:51.525 : en:(18)00:51:51:525
00:54:35.730 : en:(19)00:54:35:730
00:56:15.997 : en:(20)00:56:15:997
01:00:33.171 : en:(21)01:00:33:171
01:04:28.781 : en:(22)01:04:28:781
01:06:34.949 : en:(23)01:06:34:949
01:09:44.138 : en:(24)01:09:44:138
01:14:01.854 : en:(25)01:14:01:854
01:18:35.127 : en:(26)01:18:35:127
01:21:07.153 : en:(27)01:21:07:153
01:22:55.053 : en:(28)01:22:55:053
01:24:30.065 : en:(29)01:24:30:065
01:28:04.654 : en:(30)01:28:04:654
01:31:03.499 : en:(31)01:31:03:499
01:32:21.994 : en:(32)01:32:21:994
01:41:54.858 : en:(33)01:41:54:858
Благодарности релизеру (6)

Торрент:

Статус:

Размер:

Зарегистрирован   [ 2014-10-18 12:12 ]

поглощено

12.01 GB

 
 Мнение о фильме (4)





Спасибо... Только сегодня утром про мульт вспоминал, да и сын все просил в 3d посмотреть!
 

МедиаИнфо данного релиза

General
Unique ID : 182557497356102871398922467833040792770 (0x89574B89E850E744B127946B06F6ECC2)
Complete name : E:\ How.to.Train.Your.Dragon.2.2014.3D.H-OU.[torrent3d.ru].mkv
Format : Matroska
Format version : Version 2
File size : 12.0 GiB
Duration : 1h 41mn
Overall bit rate : 16.9 Mbps
Movie name : How.to.Train.Your.Dragon.2.2014.3D.H-OU.[torrent3d.ru]
Encoded date : UTC 2014-10-18 06:13:35
Writing application : mkvmerge v4.0.0 ('The Stars were mine') сборка от Jun 6 2010 16:18:42
Writing library : libebml v1.0.0 + libmatroska v1.0.0
Video
ID : 1
Format : AVC
Format/Info : Advanced Video Codec
Format profile : High@L4.1
Format settings, CABAC : Yes
Format settings, ReFrames : 2 frames
Codec ID : V_MPEG4/ISO/AVC
Duration : 1h 41mn
Bit rate : 16.5 Mbps
Width : 1 920 pixels
Height : 1 080 pixels
Display aspect ratio : 16:9
Frame rate mode : Constant
Frame rate : 23.976 fps
Color space : YUV
Chroma subsampling : 4:2:0
Bit depth : 8 bits
Scan type : Progressive
Bits/(Pixel*Frame) : 0.332
Stream size : 11.5 GiB (95%)
Writing library : x264 core 142
Encoding settings : cabac=1 / ref=1 / deblock=1:-1:-1 / analyse=0x3:0 / me=hex / subme=5 / psy=0 / mixed_ref=0 / me_range=16 / chroma_me=1 / trellis=0 / 8x8dct=1 / cqm=0 / deadzone=21,11 / fast_pskip=1 / chroma_qp_offset=0 / threads=8 / lookahead_threads=2 / sliced_threads=0 / nr=0 / decimate=1 / interlaced=0 / bluray_compat=0 / constrained_intra=0 / bframes=2 / b_pyramid=0 / b_adapt=1 / b_bias=0 / direct=1 / weightb=1 / open_gop=0 / weightp=0 / keyint=24 / keyint_min=13 / scenecut=40 / intra_refresh=0 / rc=abr / mbtree=0 / bitrate=16500 / ratetol=1.0 / qcomp=0.60 / qpmin=0 / qpmax=69 / qpstep=4 / ip_ratio=1.40 / pb_ratio=1.30 / aq=1:1.00
Default : No
Forced : No
Color primaries : BT.709
Transfer characteristics : BT.709
Matrix coefficients : BT.709
Audio
ID : 2
Format : AC-3
Format/Info : Audio Coding 3
Mode extension : CM (complete main)
Format settings, Endianness : Big
Codec ID : A_AC3
Duration : 1h 41mn
Bit rate mode : Constant
Bit rate : 448 Kbps
Channel(s) : 6 channels
Channel positions : Front: L C R, Side: L R, LFE
Sampling rate : 48.0 KHz
Bit depth : 16 bits
Compression mode : Lossy
Stream size : 327 MiB (3%)
Language : Russian
Default : Yes
Forced : No
Text #1
ID : 3
Format : PGS
Codec ID : S_HDMV/PGS
Codec ID/Info : The same subtitle format used on BDs/HD-DVDs
Language : Russian
Default : No
Forced : No
Text #2
ID : 4
Format : PGS
Codec ID : S_HDMV/PGS
Codec ID/Info : The same subtitle format used on BDs/HD-DVDs
Language : Ukrainian
Default : No
Forced : No
Text #3
ID : 5
Format : PGS
Codec ID : S_HDMV/PGS
Codec ID/Info : The same subtitle format used on BDs/HD-DVDs
Language : English
Default : No
Forced : No
Menu
00:00:00.000 : en:(01)00:00:00:000
00:03:27.999 : en:(02)00:03:27:999
00:05:20.695 : en:(03)00:05:20:695
00:07:46.007 : en:(04)00:07:46:007
00:10:16.032 : en:(05)00:10:16:032
00:13:16.337 : en:(06)00:13:16:337
00:16:59.059 : en:(07)00:16:59:059
00:20:01.700 : en:(08)00:20:01:700
00:23:43.255 : en:(09)00:23:43:255
00:27:14.466 : en:(10)00:27:14:466
00:29:21.468 : en:(11)00:29:21:468
00:33:41.936 : en:(12)00:33:41:936
00:37:05.473 : en:(13)00:37:05:473
00:39:06.969 : en:(14)00:39:06:969
00:40:59.165 : en:(15)00:40:59:165
00:45:03.992 : en:(16)00:45:03:992
00:47:16.625 : en:(17)00:47:16:625
00:51:51.525 : en:(18)00:51:51:525
00:54:35.730 : en:(19)00:54:35:730
00:56:15.997 : en:(20)00:56:15:997
01:00:33.171 : en:(21)01:00:33:171
01:04:28.781 : en:(22)01:04:28:781
01:06:34.949 : en:(23)01:06:34:949
01:09:44.138 : en:(24)01:09:44:138
01:14:01.854 : en:(25)01:14:01:854
01:18:35.127 : en:(26)01:18:35:127
01:21:07.153 : en:(27)01:21:07:153
01:22:55.053 : en:(28)01:22:55:053
01:24:30.065 : en:(29)01:24:30:065
01:28:04.654 : en:(30)01:28:04:654
01:31:03.499 : en:(31)01:31:03:499
01:32:21.994 : en:(32)01:32:21:994
01:41:54.858 : en:(33)01:41:54:858
 

Спасиб
 

Поглощено в пользу http://torrents3d.ru/article/10950/
Причина: ReFrames : 2 frames, me=hex, rc=abr, слишком завышенный битрейт.