Торренты   
 
 

 

Пила VII 3Д (Полная версия) / Saw 3D Final Capter (unrated) (Кевин Гротерт) [2010 г., BDRip 720p, OverUnder]

Рейтинг 3D:
1 голосов
8.0
Рейтинг фильма:
2 голосов
4.5
 
Вы должны быть авторизированы,
чтобы ставить оценки


Пила VII 3Д (Полная версия) / Saw 3D Final Capter (unrated)- Год выпуска: 2010
Страна: США
Жанр: ужасы, триллер, детектив
Продолжительность: 01:30:11
Перевод: Профессиональный (полное дублирование)
Русские субтитры: Есть-Режиссер: Кевин Гротерт
В ролях: Костас Мэндилор (Det. Mark Hoffman), Шон Патрик Флэнери (Bobby Dagen), Тобин Белл (Jigsaw / John Kramer), Кэри Элвис (Dr. Lawrence Gordon), Бетси Расселл (Jill Tuck), Дин Армстронг (Cale), Чэд Донелла (Det. Matt Gibson), Джина Холден (Joyce Dagen), Наоми Сникус (Nina), Ребекка Маршалл (Suzanne), Джеймс Ван Паттен (Dr. Heffner), Себастьян Пижотт (Brad)
Описание фильма: Жертвы Пилы, выжившие в предыдущих испытаниях, обращаются за психологической помощью к товарищу по несчастью Бобби Дагену. Но когда его собственные темные тайны всплывают на свет, развязывается новая волна террора-Релиз группы:

Качество: BDRip
Формат: MKV
Формат 3d: OverUnder / Вертикальная стереопара
Порядок ракурсов: Правый ракурс первый (верхний)
Видео кодек: H264
Аудио кодек: DTS
Видео: MPEG4 Video (H264) / 1280х1440 / 23.98fps / 7 100 Kbps
Аудио 1: Rus DTS / 5.1 / 48 kHz / 755 Kbps/ 24-bit
Аудио 2: Eng DTS / 5.1 / 48 kHz / 755 Kbps/ 24-bit
Субтитры 1: English
Субтитры 2:Russian-

Скриншоты



Медиа инфо

General
Complete name : Пила_7_OU_720p.mkv
Format : Matroska
File size : 5.53 GiB
Duration : 1h 30mn
Overall bit rate : 8 784 Kbps
Encoded date : UTC 2011-01-28 13:33:38
Writing application : mkvmerge v4.4.0 ('Die Wiederkehr') сборка от Oct 31 2010 21:52:48
Writing library : libebml v1.0.0 + libmatroska v1.0.0
Video
ID : 1
Format : AVC
Format/Info : Advanced Video Codec
Format profile : High@L4.0
Format settings, CABAC : Yes
Format settings, ReFrames : 3 frames
Format settings, GOP : M=1, N=16
Muxing mode : Container profile=Unknown@4.0
Codec ID : V_MPEG4/ISO/AVC
Duration : 1h 30mn
Bit rate : 7 100 Kbps
Width : 1 280 pixels
Height : 1 440 pixels
Display aspect ratio : 0.889
Frame rate : 23.976 fps
Color space : YUV
Chroma subsampling : 4:2:0
Bit depth : 8 bits
Scan type : Progressive
Bits/(Pixel*Frame) : 0.161
Stream size : 4.47 GiB (81%)
Writing library : x264 core 112 r1834 a51816a
Encoding settings : cabac=1 / ref=4 / deblock=1:1:1 / analyse=0x3:0x133 / me=umh / subme=8 / psy=1 / psy_rd=1.00:0.15 / mixed_ref=1 / me_range=16 / chroma_me=1 / trellis=1 / 8x8dct=1 / cqm=0 / deadzone=21,11 / fast_pskip=1 / chroma_qp_offset=-3 / threads=6 / sliced_threads=0 / nr=0 / decimate=1 / interlaced=0 / constrained_intra=0 / bframes=7 / b_pyramid=1 / b_adapt=2 / b_bias=0 / direct=3 / weightb=1 / open_gop=0 / weightp=2 / keyint=250 / keyint_min=23 / scenecut=40 / intra_refresh=0 / rc_lookahead=50 / rc=crf / mbtree=1 / crf=21.0 / qcomp=0.60 / qpmin=0 / qpmax=51 / qpstep=4 / ip_ratio=1.40 / aq=1:1.00
Color primaries : BT.709-5, BT.1361, IEC 61966-2-4, SMPTE RP177
Transfer characteristics : BT.709-5, BT.1361
Matrix coefficients : BT.709-5, BT.1361, IEC 61966-2-4 709, SMPTE RP177
Audio #1
ID : 2
Format : DTS
Format/Info : Digital Theater Systems
Codec ID : A_DTS
Duration : 1h 30mn
Bit rate mode : Constant
Bit rate : 755 Kbps
Channel(s) : 6 channels
Channel positions : Front: L C R, Side: L R, LFE
Sampling rate : 48.0 KHz
Bit depth : 24 bits
Stream size : 487 MiB (9%)
Title : DTS - Rus
Language : Russian
Audio #2
ID : 3
Format : DTS
Format/Info : Digital Theater Systems
Codec ID : A_DTS
Duration : 1h 30mn
Bit rate mode : Constant
Bit rate : 755 Kbps
Channel(s) : 6 channels
Channel positions : Front: L C R, Side: L R, LFE
Sampling rate : 48.0 KHz
Bit depth : 24 bits
Stream size : 487 MiB (9%)
Title : DTS -Eng
Text #1
ID : 4
Format : PGS
Codec ID : S_HDMV/PGS
Codec ID/Info : The same subtitle format used on BDs/HD-DVDs
Title : Subtitles - eng
Text #2
ID : 5
Format : UTF-8
Codec ID : S_TEXT/UTF8
Codec ID/Info : UTF-8 Plain Text
Title : subtitle Rus
Language : Russian
Menu
00:00:00.000 : :1. Public Announcement
00:05:13.480 : :2. Love Triangle
00:12:58.653 : :3. Reborn
00:17:16.786 : :4. Worst Nightmare
00:22:07.743 : :5. Finding The Positive
00:27:29.231 : :6. Expecting You
00:36:06.956 : :7. New Game
00:43:04.207 : :8. We've Met
00:47:54.413 : :9. Hold On
00:52:00.826 : :10. Hears No Evil
00:57:09.926 : :11. Beyond The Crossroads
01:03:09.077 : :12. I Lied
01:10:28.891 : :13. Back In Action
01:14:13.574 : :14. Now Do I Look ?
01:19:01.153 : :15. Time's Up
01:23:47.189 : :16. Game Over
Русская дорожка синхронизирована с видео !!!
Благодарности релизеру (6)

Торрент:

Статус:

Размер:

Зарегистрирован   [ 2012-05-06 21:07 ]

проверено

5.53 GB