Торренты   
 
 

 

Вызов бездне 3D / Deepsea Challenge 3D (Джон Бруно, Рэй Квинт, Эндрю Уайт) [2014 г., Anamorph OverUnder]

Рейтинг 3D:
3 голосов
7.0
Рейтинг фильма:
3 голосов
7.0
 
Вы должны быть авторизированы,
чтобы ставить оценки


Вызов бездне 3D / Deepsea Challenge 3D Год выпуска: 2014
Страна: США (National Geographic Entertainment и др.)
Жанр: документальный
Продолжительность: 01:31:05
Перевод: Отсутствует
Режиссер: Джон Бруно, Рэй Квинт, Эндрю Уайт
В ролях: Джеймс Кэмерон, Френк Лолито, Лачлан Вудс, Пол Генри
Описание: На Земле есть несколько мест, которых не коснулась история развития человечества. В полной темноте и безмолвии они хранаят величайшие тайны Земли. Недоступные, как далекие планеты, они полны научных открытий. Одно из таких мест — Марианская впадина.
Джеймс Кэмерон — самый известный и успешный режиссер в мире, еще и страстный исследователь океанов, ведомый мечтой всей его жизни, быть первым человеком, ныряющим в одиночку на дно неприступной и самой глубокой из всех известных на Земле Марианской впадины.
Вызов бездне — захватывающая история, разворачивающаяся перед нами в 3D, об экспедиции исторического масштаба, которую можно сравнить разве что с первыми человеческими шагами по луне. Вызов бездне загипнотизирует зрителя любого возраста красотой новых форм жизни, трепетом от настоящих открытий. А самое главное, что все это здесь, на их родной планете.
Качество: BDrip
Контейнер: MKV
Формат 3D: Anamorph OverUnder / Вертикальная анаморфная стереопара
Порядок ракурсов: левый ракурс первый
Видео кодек: x264
Аудио кодек: AC-3
Видео: AVC, High@L4.1, 1920х1080, 23,976 кадра/сек, 13,2 Мбит/сек
Аудио:
English: 48 kHz, AC3, 3/2 (L,C,R,l,r) + LFE ch, ~448.00 kbps avg (Original)
Cубтитры: отсутствуют

Скриншоты

Media Info

Общее
Уникальный идентификатор : 190304484116373367052251304452438135070 (0x8F2B4F79B8F9A5B88CDAB5AF46BC911E)
Полное имя : H:\Source\DeepseaChallenge.3D.2014.BDrip.Half.OU.x264.AC3.(itsamna).mkv
Формат : Matroska
Версия формата : Version 4 / Version 2
Размер файла : 8,83 Гбайт
Продолжительность : 1 ч. 31 м.
Общий поток : 13,9 Мбит/сек
Название фильма : Deepsea Challenge 3D (2014) rip by itsamna aka StarStranger (release 3D-RuGroup)
Дата кодирования : UTC 2014-10-25 07:35:13
Программа кодирования : mkvmerge v6.8.0 ('Theme for Great Cities') 32bit built on Mar 2 2014 21:27:07
Библиотека кодирования : libebml v1.3.0 + libmatroska v1.4.1
Видео
Идентификатор : 1
Формат : AVC
Формат/Информация : Advanced Video Codec
Профиль формата : High@L4.1
Параметр CABAC формата : Да
Параметр ReFrames формата : 4 кадра
Идентификатор кодека : V_MPEG4/ISO/AVC
Продолжительность : 1 ч. 31 м.
Битрейт : 13,2 Мбит/сек
Ширина : 1920 пикселей
Высота : 1080 пикселей
Соотношение сторон : 16:9
Режим частоты кадров : Постоянный
Частота кадров : 23,976 кадра/сек
Цветовое пространство : YUV
Субдискретизация насыщенности : 4:2:0
Битовая глубина : 8 бит
Тип развёртки : Прогрессивная
Бит/(Пиксели*Кадры) : 0.265
Размер потока : 8,37 Гбайт (95%)
Библиотека кодирования : x264 core 130 r2273 b3065e6
Настройки программы : cabac=1 / ref=4 / deblock=1:-3:-3 / analyse=0x3:0x133 / me=umh / subme=10 / psy=1 / psy_rd=1.00:0.15 / mixed_ref=1 / me_range=32 / chroma_me=1 / trellis=2 / 8x8dct=1 / cqm=0 / deadzone=21,11 / fast_pskip=0 / chroma_qp_offset=-3 / threads=12 / lookahead_threads=2 / sliced_threads=0 / nr=0 / decimate=1 / interlaced=0 / bluray_compat=0 / constrained_intra=0 / bframes=8 / b_pyramid=2 / b_adapt=2 / b_bias=0 / direct=3 / weightb=1 / open_gop=0 / weightp=2 / keyint=250 / keyint_min=23 / scenecut=40 / intra_refresh=0 / rc_lookahead=60 / rc=crf / mbtree=1 / crf=18.0 / qcomp=0.60 / qpmin=0 / qpmax=69 / qpstep=4 / vbv_maxrate=50000 / vbv_bufsize=62500 / crf_max=0.0 / nal_hrd=none / ip_ratio=1.40 / aq=1:0.90
Default : Да
Forced : Нет
Аудио
Идентификатор : 2
Формат : AC-3
Формат/Информация : Audio Coding 3
Расширение режима : CM (complete main)
Параметр Endianness формата : Big
Идентификатор кодека : A_AC3
Продолжительность : 1 ч. 31 м.
Вид битрейта : Постоянный
Битрейт : 448 Кбит/сек
Каналы : 6 каналов
Расположение каналов : Front: L C R, Side: L R, LFE
Частота : 48,0 КГц
Битовая глубина : 16 бит
Метод сжатия : С потерями
Размер потока : 292 Мбайт (3%)
Язык : English
Default : Да
Forced : Нет
Меню
00:00:00.000 : :01
00:07:06.968 : :02
00:14:26.324 : :03
00:20:56.589 : :04
00:28:06.977 : :05
00:35:22.329 : :06
00:42:03.438 : :07
00:49:38.976 : :08
00:56:56.997 : :09
01:04:44.422 : :10
01:13:38.205 : :11
01:24:04.414 : :12
--Релиз группы:

Проверено на встроенном плейере ТВ LG 42LW4500
--
Благодарности релизеру (13)

Торрент:

Статус:

Размер:

Зарегистрирован   [ 2014-10-25 12:02 ]

проверено

8.83 GB