Торренты   
 
 

 

Лунный свет 3: Дни вечности / Lichtmond 3: Days of Eternity [2014 г., Anamorph OverUnder]

Рейтинг 3D:
29 голосов
9.2
Рейтинг фильма:
27 голосов
8.7
 
Вы должны быть авторизированы,
чтобы ставить оценки


Лунный свет 3: Дни вечности / Lichtmond 3: Days of Eternity Год выпуска: 2014
Страна: Германия
Жанр: Музыка
Продолжительность: 00:50:03
Описание: Своим третьим альбомом Lichtmond 3: Days of Eternity братья Giorgio и Martin Koppehele продолжают свой путь путешествием по первозданному миру фантастической планеты Хронос, где время растворяется в эстетике звука и изображения...
Качество: BDrip
Контейнер: MKV
Формат 3D: Anamorph OverUnder / Вертикальная анаморфная стереопара
Порядок ракурсов: левый ракурс первый
Видео кодек: x264
Аудио кодек: AC-3
Видео: AVC, High@L4.1, 1920х1080, 23,976 кадра/сек, 12,6 Мбит/сек
Аудио:
English: 48 kHz, AC3, 3/2 (L,C,R,l,r) + LFE ch, ~640.00 kbps avg (Original)
Cубтитры: отсутствуют

Скриншоты

Медиа Инфо

Общее
Уникальный идентификатор : 172521184186737626779273626194747690090 (0x81CA5F187007577D8DF84AF0DCB98C6A)
Полное имя : H:\Source\Lichtmond.DaysOfEternity.3D.2014.BDrip.Half.OU.x264.AC3.(itsamna).mkv
Формат : Matroska
Версия формата : Version 4 / Version 2
Размер файла : 4,74 Гбайт
Продолжительность : 50 м.
Общий поток : 13,6 Мбит/сек
Название фильма : Lichtmond 3: Days of Eternity (2014) 3D rip by itsamna aka StarStranger (release 3D-RuGroup)
Дата кодирования : UTC 2014-10-28 05:22:07
Программа кодирования : mkvmerge v6.8.0 ('Theme for Great Cities') 32bit built on Mar 2 2014 21:27:07
Библиотека кодирования : libebml v1.3.0 + libmatroska v1.4.1
Видео
Идентификатор : 1
Формат : AVC
Формат/Информация : Advanced Video Codec
Профиль формата : High@L4.1
Параметр CABAC формата : Да
Параметр ReFrames формата : 4 кадра
Идентификатор кодека : V_MPEG4/ISO/AVC
Продолжительность : 50 м.
Битрейт : 12,6 Мбит/сек
Ширина : 1920 пикселей
Высота : 1080 пикселей
Соотношение сторон : 16:9
Режим частоты кадров : Постоянный
Частота кадров : 23,976 кадра/сек
Цветовое пространство : YUV
Субдискретизация насыщенности : 4:2:0
Битовая глубина : 8 бит
Тип развёртки : Прогрессивная
Бит/(Пиксели*Кадры) : 0.254
Размер потока : 4,42 Гбайт (93%)
Библиотека кодирования : x264 core 130 r2273 b3065e6
Настройки программы : cabac=1 / ref=4 / deblock=1:-3:-3 / analyse=0x3:0x133 / me=umh / subme=10 / psy=1 / psy_rd=1.00:0.15 / mixed_ref=1 / me_range=32 / chroma_me=1 / trellis=2 / 8x8dct=1 / cqm=0 / deadzone=21,11 / fast_pskip=0 / chroma_qp_offset=-3 / threads=12 / lookahead_threads=2 / sliced_threads=0 / nr=0 / decimate=1 / interlaced=0 / bluray_compat=0 / constrained_intra=0 / bframes=8 / b_pyramid=2 / b_adapt=2 / b_bias=0 / direct=3 / weightb=1 / open_gop=0 / weightp=2 / keyint=250 / keyint_min=23 / scenecut=40 / intra_refresh=0 / rc_lookahead=60 / rc=crf / mbtree=1 / crf=18.0 / qcomp=0.60 / qpmin=0 / qpmax=69 / qpstep=4 / vbv_maxrate=50000 / vbv_bufsize=62500 / crf_max=0.0 / nal_hrd=none / ip_ratio=1.40 / aq=1:0.90
Default : Да
Forced : Нет
Аудио
Идентификатор : 2
Формат : AC-3
Формат/Информация : Audio Coding 3
Расширение режима : CM (complete main)
Параметр Endianness формата : Big
Идентификатор кодека : A_AC3
Продолжительность : 50 м.
Вид битрейта : Постоянный
Битрейт : 640 Кбит/сек
Каналы : 6 каналов
Расположение каналов : Front: L C R, Side: L R, LFE
Частота : 48,0 КГц
Битовая глубина : 16 бит
Метод сжатия : С потерями
Размер потока : 229 Мбайт (5%)
Заголовок : Музыка - BD 3D
Язык : English
Default : Да
Forced : Нет
Меню
00:00:00.000 : :1. Nightflight to Chronos Part 1
00:01:38.932 : :2. Nightflight to Chronos Part 2
00:03:49.646 : :3. Feel the Spirit (vocal Meera Fe)
00:10:25.041 : :4. Wheel of Time (vocal Martin Koppehele)
00:15:42.775 : :5. Catching Rainbows (vocal Meera Fe)
00:21:57.650 : :6. Empires of the Past (poem Sky du Mont; vocal Meera Fe)
00:28:51.229 : :7. Days of Eternity (vocal I Muvrini, Karen Kassulat & Thomas E. Killinger)
00:34:59.306 : :8. Space and Beyond
00:40:17.040 : :9. Endless Moments (vocal Midge Ure & Suna Koppehele)
00:46:34.166 : :10. Leaving Chronos
--Релиз группы:

Проверено на встроенном плейере ТВ LG 42LW4500
--
Благодарности релизеру (63)

Торрент:

Статус:

Размер:

Зарегистрирован   [ 2014-10-28 10:51 ]

проверено

4.74 GB

 
 Мнение о фильме (11)





Как и ожедал всё на высоте.
 

Как и ожедал всё на высоте.
жестоко...
 

50 минут волшебства
 

Все классно
 

супер!идет в коллекцию!
 

Просто другая реальность. Очень понравилось.
 

во второй музыка самая лучшая, имхо
 

на LG 55LB730v не поддерживает формат через USB что делать? расскажите в чем причина телек 2014 года
 

браво ! всё музыка видео всё ок!
 

Класс!!!!! Спасибо!!!!
 

Большое спасибо! Одним словом (в 3D) просто - волшебство