Торренты   
 
 

 

Город грехов 2: Женщина, ради которой стоит убивать / Sin City: A Dame to Kill For (Роберт Родригес, Фрэнк Миллер) [2014 г., Anamorph OverUnder]

Рейтинг 3D:
32 голосов
8.2
Рейтинг фильма:
33 голосов
7.4
 
Вы должны быть авторизированы,
чтобы ставить оценки



Город грехов 2: Женщина, ради которой стоит убивать / Sin City: A Dame to Kill For
Год выпуска: 2014
Страна: США, Россия
Жанр: триллер, криминал
Продолжительность: 01:42:08
Перевод: Профессиональный (полное дублирование)
Режиссер: Роберт Родригес, Фрэнк Миллер
В ролях: Микки Рурк, Джессика Альба, Джош Бролин, Джозеф Гордон-Левитт, Розарио Доусон, Брюс Уиллис, Ева Грин, Пауэрс Бут, Деннис Хейсбёрт, Рэй Лиотта
Описание: В темных переулках Города Грехов Дуайт планирует жестоко отомстить женщине по имени Ава Лорд, которая его предала, в то время как Нэнси пытается смириться со смертью детектива Хартигана.
Качество: BDrip
Контейнер: MKV
Формат 3D: Anamorph OverUnder / Вертикальная анаморфная стереопара
Порядок ракурсов: левый ракурс первый
Видео кодек: x264
Аудио кодек: AC-3
Видео: AVC, High@L4.1, 1920х1080, 23,976 кадра/сек, 7054 Кбит/сек
Аудио:
Russian: 48 kHz, AC3, 3/2 (L,C,R,l,r) + LFE ch, ~640.00 kbps avg |Дубляж|
English: 48 kHz, AC3, 3/2 (L,C,R,l,r) + LFE ch, ~640.00 kbps avg (Original)
Cубтитры: English

Скриншоты

Media Info

Общее
Уникальный идентификатор : 240737242669917168921056605681477397262 (0xB51C4E72C49CF491904CBD570D7EAB0E)
Полное имя : H:\Source\SinCity.ADameToKillFor.3D.2014.BDrip.Half.OU.x264.AC3.(itsamna).mkv
Формат : Matroska
Версия формата : Version 4 / Version 2
Размер файла : 6,07 Гбайт
Продолжительность : 1 ч. 42 м.
Общий поток : 8503 Кбит/сек
Название фильма : Sin City: A Dame to Kill For 3D rip by itsamna aka StarStranger (release 3D-RuGroup)
Дата кодирования : UTC 2014-11-08 07:17:30
Программа кодирования : mkvmerge v6.8.0 ('Theme for Great Cities') 32bit built on Mar 2 2014 21:27:07
Библиотека кодирования : libebml v1.3.0 + libmatroska v1.4.1
Видео
Идентификатор : 1
Формат : AVC
Формат/Информация : Advanced Video Codec
Профиль формата : High@L4.1
Параметр CABAC формата : Да
Параметр ReFrames формата : 4 кадра
Идентификатор кодека : V_MPEG4/ISO/AVC
Продолжительность : 1 ч. 42 м.
Битрейт : 7054 Кбит/сек
Ширина : 1920 пикселей
Высота : 1080 пикселей
Соотношение сторон : 16:9
Режим частоты кадров : Постоянный
Частота кадров : 23,976 кадра/сек
Цветовое пространство : YUV
Субдискретизация насыщенности : 4:2:0
Битовая глубина : 8 бит
Тип развёртки : Прогрессивная
Бит/(Пиксели*Кадры) : 0.142
Размер потока : 5,03 Гбайт (83%)
Библиотека кодирования : x264 core 130 r2273 b3065e6
Настройки программы : cabac=1 / ref=4 / deblock=1:-3:-3 / analyse=0x3:0x133 / me=umh / subme=10 / psy=1 / psy_rd=1.00:0.15 / mixed_ref=1 / me_range=32 / chroma_me=1 / trellis=2 / 8x8dct=1 / cqm=0 / deadzone=21,11 / fast_pskip=0 / chroma_qp_offset=-3 / threads=12 / lookahead_threads=2 / sliced_threads=0 / nr=0 / decimate=1 / interlaced=0 / bluray_compat=0 / constrained_intra=0 / bframes=8 / b_pyramid=2 / b_adapt=2 / b_bias=0 / direct=3 / weightb=1 / open_gop=0 / weightp=2 / keyint=250 / keyint_min=23 / scenecut=40 / intra_refresh=0 / rc_lookahead=60 / rc=crf / mbtree=1 / crf=18.0 / qcomp=0.60 / qpmin=0 / qpmax=69 / qpstep=4 / vbv_maxrate=50000 / vbv_bufsize=62500 / crf_max=0.0 / nal_hrd=none / ip_ratio=1.40 / aq=1:0.90
Default : Да
Forced : Нет
Аудио #1
Идентификатор : 2
Формат : AC-3
Формат/Информация : Audio Coding 3
Расширение режима : CM (complete main)
Параметр Endianness формата : Big
Идентификатор кодека : A_AC3
Продолжительность : 1 ч. 42 м.
Вид битрейта : Постоянный
Битрейт : 640 Кбит/сек
Каналы : 6 каналов
Расположение каналов : Front: L C R, Side: L R, LFE
Частота : 48,0 КГц
Битовая глубина : 16 бит
Метод сжатия : С потерями
Размер потока : 468 Мбайт (8%)
Default : Да
Forced : Нет
Аудио #2
Идентификатор : 3
Формат : AC-3
Формат/Информация : Audio Coding 3
Расширение режима : CM (complete main)
Параметр Endianness формата : Big
Идентификатор кодека : A_AC3
Продолжительность : 1 ч. 42 м.
Вид битрейта : Постоянный
Битрейт : 640 Кбит/сек
Каналы : 6 каналов
Расположение каналов : Front: L C R, Side: L R, LFE
Частота : 48,0 КГц
Битовая глубина : 16 бит
Метод сжатия : С потерями
Размер потока : 468 Мбайт (8%)
Default : Нет
Forced : Нет
Текст
Идентификатор : 4
Формат : UTF-8
Идентификатор кодека : S_TEXT/UTF8
Идентификатор кодека/Информация : UTF-8 Plain Text
Язык : English
Default : Нет
Forced : Нет
Меню
00:00:00.000 : en:00:00:00.000
00:07:04.966 : en:00:07:04.966
00:14:23.571 : en:00:14:23.571
00:20:40.114 : en:00:20:40.114
00:26:18.911 : en:00:26:18.911
00:31:26.885 : en:00:31:26.885
00:38:13.666 : en:00:38:13.666
00:45:24.639 : en:00:45:24.639
00:50:49.630 : en:00:50:49.630
00:57:46.588 : en:00:57:46.588
01:07:05.980 : en:01:07:05.980
01:12:30.805 : en:01:12:30.805
01:16:48.437 : en:01:16:48.437
01:23:19.828 : en:01:23:19.828
01:28:59.084 : en:01:28:59.084
01:35:22.967 : en:01:35:22.967
--Релиз группы:

Проверено на встроенном плейере ТВ LG 42LW4500
--
Благодарности релизеру (62)

Торрент:

Статус:

Размер:

Зарегистрирован   [ 2014-11-08 12:51 ]

проверено

6.07 GB

 
 Мнение о фильме (15)





Объем отличный! Сюжет слабоват. Спасибо!
 

razivill, еще не посмотрел, но даже по предварительным скринам было ясно что только в 3Д, поле деятельности огромно, а вот как с реализацией?
 

D.akaSS, так я же и говорю, 3D высший класс.
 

Спасибо! Хороший фильм, хорошее 3Д. Вылеты есть. Фильм снят с такой ненавистью к здравому смыслу, что это убеждает. Хоть я мало что понял, но это и не важно!
 

СПАСИБО) Отличная работа-)
 

Вот облом, не дождался, в 2D посмотрел... А его ради 3D только и стоило смотреть.
 

А он не нуждается в удалении черных полос? Простите, что, возможно, глупость спрашиваю. Просто, может, он уже идет без них
 

О 3Д судить сложно, такое нужно пробовать через проектор смотреть, во всяком случае 42" от ЛЖ весь объем не раскрывают...К чему и очем фильм не понял... выдержал минут 10, потом юзал перемотку, но доже таким образом вытерпел до 47 минуты...
istas, на чем наблюдали вылеты? Кроме мишуры что выходит из переднего плана, то от чего должно захватывать дух "упирается в экран" аналогично 4(5)Д роликам, только при заметно лучшем качестве (0.03.58-0.04.03) - первые момент когда стало ясно что будет разочарование, сюжет...
 

фильм очень интересный и со смысолм для тех кто не понимает смотрите сначала перву часть и без перемоток такие фильми на перемотках не смотрят
 

как убрать субтитры на телике? Встроеная функция телевизора LG не отключает субтитры
 

нашел ответ на свой вопрос, во3можно кому будет поле3ным - в меню просмотра фильма где промотка справа стрелочка, в ней можно настроить субтитры либо настроить
 

киношка классная в 3д смотрится шикарно
 

Так и не решился посмотреть )
 

Смотрел его несколько раз. В 3D-кинотеатре, на каком-то ресурсе в 2D, и дома на 3D-телеке. Скажу сразу: обожаю Город Грехов. Не пожалел ни разу, просматривая его. Жаль один гадкий гаджет мне его с компа удалил. Теперь качаю заново, чтоб освежить впечатления.
фильм очень интересный и со смысолм для тех кто не понимает смотрите сначала перву часть и без перемоток такие фильми на перемотках не смотрят
Поддерживаю. Однозначно без перемоток
 

СПАСИБО ! ЗАЦЕНИМ на SAMSUNG 48 3D !!!