Торренты   
 
 


Геракл / Hercules (Бретт Рэтнер) [2014 г., Anamorph OverUnder]

Рейтинг 3D:
16 голосов
6.9
Рейтинг фильма:
16 голосов
6.6
 
Вы должны быть авторизированы,
чтобы ставить оценки


Геракл / Hercules Год выпуска: 2014
Страна: США (Flynn Picture Company, Metro-Goldwyn-Mayer (MGM), Paramount Pictures, Radical Studios)
Жанр: боевик, приключения
Продолжительность: 01:38:05
Перевод: Профессиональный (полное дублирование) лицензия
Режиссер: Бретт Рэтнер
В ролях: Дуэйн Джонсон, Аксель Хенни, Джозеф Файнс, Джон Хёрт, Иэн МакШейн, Роберт Мэйллет, Руфус Сьюэлл, Ирина Шейк, Ингрид Болсай Бердал, Джо Андерсон
Описание: Более тысячи лет назад измученная душа скиталась по Земле, полубог, получеловек — Геракл — могучий сын царя богов Зевса, совершив все 12 подвигов, потерял семью и теперь находит утешение только в кровавых битвах.
За эти годы он собирает вокруг себя шестерых таких же потерянных воинов, единственным смыслом жизни для которых стали сражения и присутствие смертельной опасности. Эти мужчины и женщина никогда не задают вопрос, где, почему или с кем они идут сражаться; только, сколько им заплатят. Зная это, фракийский царь Котис нанимает этих воинов, чтобы они обучили его солдат и сделали из них самую сильную и великую армию всех времен.
Качество: BDrip
Контейнер: MKV
Формат 3D: Anamorph OverUnder / Вертикальная анаморфная стереопара
Порядок ракурсов: левый ракурс первый
Видео кодек: x264
Аудио кодек: AC-3
Видео: AVC, High@L4.1, 1920х1080, 23,976 кадра/сек, 9578 Кбит/сек
Аудио:
Russian: 48 kHz, AC3, 3/2 (L,C,R,l,r) + LFE ch, ~640.00 kbps avg |Дубляж, Blu-Ray CEE|
English: 48 kHz, AC3, 3/2 (L,C,R,l,r) + LFE ch, ~640.00 kbps avg (Original)
Cубтитры: Русские (полные + форс.), английские (Full + SDH)

Скриншоты

Media Info

Общее
Уникальный идентификатор : 219198405813064793145004994535306829594 (0xA4E813CD52BA13F0B528E109940C1F1A)
Полное имя : D:\Hercules.3D.2014.BDrip.Half.OU.x264.AC3.(itsamna).3D-RuGroup.mkv
Формат : Matroska
Версия формата : Version 4 / Version 2
Размер файла : 7,59 Гбайт
Продолжительность : 1 ч. 38 м.
Общий поток : 11,1 Мбит/сек
Название фильма : Herculas (2014) 3D rip by itsamna aka StarStranger (release 3D-RuGroup)
Дата кодирования : UTC 2014-12-05 08:43:37
Программа кодирования : mkvmerge v6.8.0 ('Theme for Great Cities') 32bit built on Mar 2 2014 21:27:07
Библиотека кодирования : libebml v1.3.0 + libmatroska v1.4.1
Видео
Идентификатор : 1
Формат : AVC
Формат/Информация : Advanced Video Codec
Профиль формата : High@L4.1
Параметр CABAC формата : Да
Параметр ReFrames формата : 4 кадра
Идентификатор кодека : V_MPEG4/ISO/AVC
Продолжительность : 1 ч. 38 м.
Битрейт : 9573 Кбит/сек
Ширина : 1920 пикселей
Высота : 1080 пикселей
Соотношение сторон : 16:9
Режим частоты кадров : Постоянный
Частота кадров : 23,976 кадра/сек
Цветовое пространство : YUV
Субдискретизация насыщенности : 4:2:0
Битовая глубина : 8 бит
Тип развёртки : Прогрессивная
Бит/(Пиксели*Кадры) : 0.193
Размер потока : 6,56 Гбайт (86%)
Библиотека кодирования : x264 core 130 r2273 b3065e6
Настройки программы : cabac=1 / ref=4 / deblock=1:-3:-3 / analyse=0x3:0x133 / me=umh / subme=10 / psy=1 / psy_rd=1.00:0.15 / mixed_ref=1 / me_range=32 / chroma_me=1 / trellis=2 / 8x8dct=1 / cqm=0 / deadzone=21,11 / fast_pskip=0 / chroma_qp_offset=-3 / threads=12 / lookahead_threads=2 / sliced_threads=0 / nr=0 / decimate=1 / interlaced=0 / bluray_compat=0 / constrained_intra=0 / bframes=8 / b_pyramid=2 / b_adapt=2 / b_bias=0 / direct=3 / weightb=1 / open_gop=0 / weightp=2 / keyint=250 / keyint_min=23 / scenecut=40 / intra_refresh=0 / rc_lookahead=60 / rc=crf / mbtree=1 / crf=17.0 / qcomp=0.60 / qpmin=0 / qpmax=69 / qpstep=4 / vbv_maxrate=50000 / vbv_bufsize=62500 / crf_max=0.0 / nal_hrd=none / ip_ratio=1.40 / aq=1:0.90
Default : Да
Forced : Нет
Аудио #1
Идентификатор : 2
Формат : AC-3
Формат/Информация : Audio Coding 3
Расширение режима : CM (complete main)
Параметр Endianness формата : Big
Идентификатор кодека : A_AC3
Продолжительность : 1 ч. 38 м.
Вид битрейта : Постоянный
Битрейт : 640 Кбит/сек
Каналы : 6 каналов
Расположение каналов : Front: L C R, Side: L R, LFE
Частота : 48,0 КГц
Битовая глубина : 16 бит
Метод сжатия : С потерями
Размер потока : 449 Мбайт (6%)
Заголовок : Dub | DD 5.1 @ 640 kbps - Blu-Ray
Язык : Russian
Default : Да
Forced : Да
Аудио #2
Идентификатор : 3
Формат : AC-3
Формат/Информация : Audio Coding 3
Расширение режима : CM (complete main)
Параметр Endianness формата : Big
Идентификатор кодека : A_AC3
Продолжительность : 1 ч. 38 м.
Вид битрейта : Постоянный
Битрейт : 640 Кбит/сек
Каналы : 6 каналов
Расположение каналов : Front: L C R, Side: L R, LFE
Частота : 48,0 КГц
Битовая глубина : 16 бит
Метод сжатия : С потерями
Размер потока : 449 Мбайт (6%)
Заголовок : Original | DD 5.1 @ 640 kbps
Язык : English
Default : Нет
Forced : Нет
Текст #1
Идентификатор : 4
Формат : UTF-8
Идентификатор кодека : S_TEXT/UTF8
Идентификатор кодека/Информация : UTF-8 Plain Text
Заголовок : форс.
Язык : Russian
Default : Да
Forced : Да
Текст #2
Идентификатор : 5
Формат : UTF-8
Идентификатор кодека : S_TEXT/UTF8
Идентификатор кодека/Информация : UTF-8 Plain Text
Заголовок : Blu-Ray
Язык : Russian
Default : Нет
Forced : Нет
Текст #3
Идентификатор : 6
Формат : UTF-8
Идентификатор кодека : S_TEXT/UTF8
Идентификатор кодека/Информация : UTF-8 Plain Text
Заголовок : Full
Язык : English
Default : Нет
Forced : Нет
Текст #4
Идентификатор : 7
Формат : UTF-8
Идентификатор кодека : S_TEXT/UTF8
Идентификатор кодека/Информация : UTF-8 Plain Text
Заголовок : SDH
Язык : English
Default : Нет
Forced : Нет
Меню
00:00:00.000 : :Chapter 01
00:05:00.000 : :Chapter 02
00:10:00.000 : :Chapter 03
00:15:00.000 : :Chapter 04
00:20:00.000 : :Chapter 05
00:25:00.000 : :Chapter 06
00:30:00.000 : :Chapter 07
00:35:00.000 : :Chapter 08
00:40:00.000 : :Chapter 09
00:45:00.000 : :Chapter 10
00:50:00.000 : :Chapter 11
00:55:00.000 : :Chapter 12
01:00:00.000 : :Chapter 13
01:05:00.000 : :Chapter 14
01:10:00.000 : :Chapter 15
01:15:00.000 : :Chapter 16
01:20:00.000 : :Chapter 17
01:25:00.000 : :Chapter 18
01:30:00.000 : :Chapter 19
01:35:00.000 : :Chapter 20
--Релиз группы:

Проверено на встроенном плейере ТВ LG 42LW4500
--05.12.2014. Релиз обновлён - русская дорога заменена на лицензию, добавлен пакет субтитров.
Желающие, скачайте заново торрент-файл.
Благодарности релизеру (19)

Торрент:

Статус:

Размер:

Зарегистрирован   [ 2014-12-05 13:54 ]

* не проверено

7.59 GB

 
 Мнение о фильме (7)





Несмотря на то, что русская дорожка называется "DUB (Line)", звук 6-канальный и достаточно качественный. Фильм понравился - нестандартный взгляд на "народного героя". :) 3Д - хорошее, масса бросков, рывков и тыков прямо в лицо. :)
 

Отличное 3Д и фильм, получили массу удовольствия!
 

garrick, скорей всего просто в файле забыли поменять название дороги , как говорится поспешишь....но за фильм конечно все равно спасибо!
Скачал кроп любимый и этот Потому как тут боевые действия - этот редкий случай когда по бокам нет нет да может что-то важное промелькнет :)))) Хотя чего там важного ?
 

Отличный фильм! Хорошее 3D.
 

Фильм класс!советую посмотреть.)
 

Дайте раздачу плииз)
 

StarStranger, раздачууу плз