Торренты   
 
 


Стражи галактики / Guardians of the Galaxy [2014 г.]

Рейтинг 3D:
3 голосов
4.0
Рейтинг фильма:
4 голосов
5.0
 
Вы должны быть авторизированы,
чтобы ставить оценки


Стражи галактики / Guardians of the Galaxy
Год выпуска: 2014
Страна: США, Marvel Enterprises, Marvel Studios, Moving Picture Company
Жанр: Фантастика, боевик, приключения
Описание: Питер Квилл становится жертвой охотников за головами после кражи таинственной сферы, за которой охотился Ронан- могущественный злодей, полный амбиций и угрожающий целой вселенной. Чтобы одолеть Ронана, Питеру приходится объединиться с квартетом отбросов: вооружённым до зубов Ракетным енотом, древоподобным гуманоидом Грутом, смертельно опасной и загадочной Гаморой и мстительным Драксом Разрушителем. Но когда Питер обнаруживает истинную силу сферы и узнаёт насколько она опасна для космоса, он должен сделать всё возможное, чтобы сплотить всех членов команды для последнего противостояния и вернуть баланс во всей Галактике.
Доп. информация: Раздача временная, т.к. до 2 декабря в лучшем качестве не предвидится. В раздаче горизонтальная и вертикальная анаморфные стереопары (с полосами). Звук и видео нормальные. Перевод дубляж от итюнса.
3D: Half OverUnder
Качество: BDRip (1080p)
Видео: MPEG-4 AVC, 12 Mбит/с, 1920x1080
Аудио: Русский (AC3, 6 ch, 384 Кбит/с), английский (DTS, 6 ch, 1510 Кбит/с)
Размер: 11.73 ГБ
Продолжительность: 02:01:08
Перевод: Дублированный
Субтитры: Русские, английские

Скриншоты вертикальные


Качество: BDRip 1080p [IMAX]
Формат: MKV
Формат 3D: Half SideBySide / Горизонтальная анаморфная стереопара
Порядок ракурсов: левый ракурс первый
Видео кодек: AVC
Аудио кодек: AC-3
Видео: AVC, 1920x1080 (16:9), 23.976 fps, 13.7 Mbps (0.276 bit/pixel)
Аудио: AC-3, 48.0 KHz, 2 ch, 384 Kbps, CBR

Скриншоты горизонтальные



МедиаИнфо

Вертикалка


General
Unique ID : 180828458882154417167165781581044548374 (0x880A4B5C37487805B3E94172B7528316)
Complete name : E:\Torrentino\Стражи Галактики\Стражи.Галактики_Guardians.of.the.Galaxy.2014.3D.BluRay.HOU.1080p.mkv
Format : Matroska
Format version : Version 4 / Version 2
File size : 11.7 GiB
Duration : 2h 0mn
Overall bit rate : 13.9 Mbps
Movie name : Стражи.Галактики_Guardians.of.the.Galaxy.2014.3D.BluRay.HOU.1080p
Encoded date : UTC 2010-02-22 21:41:31
Writing application : mkvmerge v5.8.0 ('No Sleep / Pillow') built on Nov 13 2012 19:43:22
Writing library : libebml v1.3.0 + libmatroska v1.4.0
Attachment : Yes / Yes
Video
ID : 1
Format : AVC
Format/Info : Advanced Video Codec
Format profile : High@L4.1
MultiView_Count : 2
MultiView_Layout : Top-Bottom (left eye first)
Format settings, CABAC : Yes
Format settings, ReFrames : 4 frames
Codec ID : V_MPEG4/ISO/AVC
Duration : 2h 0mn
Bit rate : 12.0 Mbps
Width : 1 920 pixels
Height : 1 080 pixels
Display aspect ratio : 16:9
Frame rate mode : Constant
Frame rate : 23.976 fps
Color space : YUV
Chroma subsampling : 4:2:0
Bit depth : 8 bits
Scan type : Progressive
Bits/(Pixel*Frame) : 0.241
Stream size : 9.90 GiB (84%)
Title : Стражи.Галактики_Guardians.of.the.Galaxy.2014.3D.BluRay.HOU.1080p
Writing library : x264 core 142 r2389 956c8d8
Encoding settings : cabac=1 / ref=4 / deblock=1:-3:-3 / analyse=0x3:0x113 / me=umh / subme=10 / psy=1 / psy_rd=1.00:0.00 / mixed_ref=1 / me_range=32 / chroma_me=1 / trellis=2 / 8x8dct=1 / cqm=0 / deadzone=21,11 / fast_pskip=0 / chroma_qp_offset=-4 / threads=24 / lookahead_threads=2 / sliced_threads=0 / nr=0 / decimate=0 / interlaced=0 / bluray_compat=0 / constrained_intra=0 / bframes=6 / b_pyramid=2 / b_adapt=2 / b_bias=0 / direct=3 / weightb=1 / open_gop=0 / weightp=2 / keyint=250 / keyint_min=23 / scenecut=40 / intra_refresh=0 / rc=2pass / mbtree=0 / bitrate=12000 / ratetol=1.0 / qcomp=0.80 / qpmin=0 / qpmax=69 / qpstep=4 / cplxblur=20.0 / qblur=0.5 / frame-packing=4 / ip_ratio=1.30 / pb_ratio=1.30 / aq=2:0.90
Language : English
Default : Yes
Forced : No
Audio #1
ID : 2
Format : AC-3
Format/Info : Audio Coding 3
Mode extension : CM (complete main)
Format settings, Endianness : Big
Codec ID : A_AC3
Duration : 2h 0mn
Bit rate mode : Constant
Bit rate : 384 Kbps
Channel(s) : 6 channels
Channel positions : Front: L C R, Side: L R, LFE
Sampling rate : 48.0 KHz
Bit depth : 16 bits
Compression mode : Lossy
Stream size : 332 MiB (3%)
Title : Дублированный (iTunes Россия)
Language : Russian
Default : Yes
Forced : No
Audio #2
ID : 3
Format : DTS
Format/Info : Digital Theater Systems
Mode : 16
Format settings, Endianness : Big
Codec ID : A_DTS
Duration : 2h 0mn
Bit rate mode : Constant
Bit rate : 1 509 Kbps
Channel(s) : 6 channels
Channel positions : Front: L C R, Side: L R, LFE
Sampling rate : 48.0 KHz
Bit depth : 24 bits
Compression mode : Lossy
Stream size : 1.27 GiB (11%)
Title : English DTS Core of DTS-HD (Bitrate: 1536Kbps core + MLP data.Sample Rate: 48KHz Channels: 7.1 (DTS Master Audio 24bit))
Language : English
Default : No
Forced : No
Text #1
ID : 4
Format : VobSub
Muxing mode : zlib
Codec ID : S_VOBSUB
Codec ID/Info : The same subtitle format used on DVDs
Title : English (3D PGS)
Language : English
Default : No
Forced : No
Text #2
ID : 5
Format : UTF-8
Codec ID : S_TEXT/UTF8
Codec ID/Info : UTF-8 Plain Text
Title : (iTunes}
Language : Russian
Default : No
Forced : No
Menu
00:00:00.000 : :1 - 0:00:00
00:04:05.703 : :2 - 0:04:05
00:11:21.806 : :3 - 0:11:21
00:15:21.712 : :4 - 0:15:21
00:20:54.419 : :5 - 0:20:54
00:27:11.212 : :6 - 0:27:11
00:33:58.828 : :7 - 0:33:58
00:44:28.290 : :8 - 0:44:28
00:50:53.008 : :9 - 0:50:53
00:55:17.564 : :10 - 0:55:17
00:59:45.206 : :11 - 0:59:45
01:06:06.921 : :12 - 1:06:06
01:14:46.023 : :13 - 1:14:46
01:22:20.644 : :14 - 1:22:20
01:26:29.726 : :15 - 1:26:29
01:30:23.876 : :16 - 1:30:23
01:35:58.377 : :17 - 1:35:58
01:40:46.749 : :18 - 1:40:46
01:47:35.365 : :19 - 1:47:35
01:53:16.623 : :20 - 1:53:16
02:00:10.828 : :21 - 2:00:10
02:00:50.952 : :22 - 2:00:50

Горизонталка


General
Unique ID : 225920227794404492417075838937331961060 (0xA9F6A7367D770E7690BF15A881348CE4)
Complete name : E:\Torrentino\Стражи Галактики\Guardians.of.the.Galaxy.2014.3D.1080p.BluRay.Half-SBS.x264.mkv
Format : Matroska
Format version : Version 4 / Version 2
File size : 12.2 GiB
Duration : 2h 0mn
Overall bit rate : 14.4 Mbps
Encoded date : UTC 2014-11-17 15:31:12
Writing application : mkvmerge v7.3.0 ('Nouages') 64bit built on Oct 22 2014 18:53:34
Writing library : libebml v1.3.0 + libmatroska v1.4.1
DURATION : 02:00:51.136000000
NUMBER_OF_FRAMES : 226598
NUMBER_OF_BYTES : 348054528
_STATISTICS_WRITING_APP : mkvmerge v7.3.0 ('Nouages') 64bit built on Oct 22 2014 18:53:34
_STATISTICS_WRITING_DATE_UTC : 2014-11-17 15:31:12
_STATISTICS_TAGS : BPS DURATION NUMBER_OF_FRAMES NUMBER_OF_BYTES
Video
ID : 1
Format : AVC
Format/Info : Advanced Video Codec
Format profile : High@L4.1
Format settings, CABAC : Yes
Format settings, ReFrames : 4 frames
Codec ID : V_MPEG4/ISO/AVC
Duration : 2h 0mn
Bit rate : 13.7 Mbps
Width : 1 920 pixels
Height : 1 080 pixels
Display aspect ratio : 16:9
Frame rate mode : Constant
Frame rate : 23.976 fps
Color space : YUV
Chroma subsampling : 4:2:0
Bit depth : 8 bits
Scan type : Progressive
Bits/(Pixel*Frame) : 0.276
Stream size : 11.6 GiB (95%)
Writing library : x264 core 133 r2334kMod a3ac64b
Encoding settings : cabac=1 / ref=4 / deblock=1:-3:-3 / analyse=0x3:0x133 / me=tesa / subme=11 / psy=1 / fade_compensate=0.00 / psy_rd=0.95:0.00 / mixed_ref=1 / me_range=24 / chroma_me=1 / trellis=2 / 8x8dct=1 / cqm=0 / deadzone=21,11 / fast_pskip=0 / chroma_qp_offset=-2 / threads=18 / lookahead_threads=3 / sliced_threads=0 / nr=0 / decimate=0 / interlaced=0 / bluray_compat=0 / constrained_intra=0 / bframes=8 / b_pyramid=2 / b_adapt=2 / b_bias=0 / direct=3 / weightb=1 / open_gop=0 / weightp=2 / keyint=250 / keyint_min=23 / scenecut=40 / intra_refresh=0 / rc=crf / mbtree=0 / crf=16.5000 / qcomp=0.65 / qpmin=0 / qpmax=69 / qpstep=4 / frame-packing=3 / ip_ratio=1.20 / pb_ratio=1.10 / aq=1:0.90
Language : English
Default : Yes
Forced : No
_STATISTICS_WRITING_APP : mkvmerge v7.3.0 ('Nouages') 64bit built on Oct 22 2014 18:53:34
_STATISTICS_WRITING_DATE_UTC : 2014-11-17 15:31:12
_STATISTICS_TAGS : BPS DURATION NUMBER_OF_FRAMES NUMBER_OF_BYTES
DURATION : 02:00:54.164000000
NUMBER_OF_FRAMES : 173926
NUMBER_OF_BYTES : 12705190618
Audio
ID : 2
Format : AC-3
Format/Info : Audio Coding 3
Mode extension : CM (complete main)
Format settings, Endianness : Big
Codec ID : A_AC3
Duration : 2h 0mn
Bit rate mode : Constant
Bit rate : 384 Kbps
Channel(s) : 2 channels
Channel positions : Front: L R
Sampling rate : 48.0 KHz
Bit depth : 16 bits
Compression mode : Lossy
Stream size : 332 MiB (3%)
Default : Yes
Forced : No
Menu
00:00:00.000 : en:00:00:00.000
00:04:05.704 : en:00:04:05.704
00:11:21.806 : en:00:11:21.806
00:15:21.712 : en:00:15:21.712
00:20:54.420 : en:00:20:54.420
00:27:11.213 : en:00:27:11.213
00:33:58.828 : en:00:33:58.828
00:44:28.291 : en:00:44:28.291
00:50:53.008 : en:00:50:53.008
00:55:17.564 : en:00:55:17.564
00:59:45.207 : en:00:59:45.207
01:06:06.921 : en:01:06:06.921
01:14:46.023 : en:01:14:46.023
01:22:20.644 : en:01:22:20.644
01:26:29.726 : en:01:26:29.726
01:30:23.877 : en:01:30:23.877
01:35:58.378 : en:01:35:58.378
01:40:46.749 : en:01:40:46.749
01:47:35.366 : en:01:47:35.366
01:53:16.623 : en:01:53:16.623
02:00:10.829 : en:02:00:10.829

Интересно знать...


• Художник-постановщик Чарльз Вуд и его команда спроектировали и построили несколько крупномасштабных декораций для съемок фильма. Самым большим сооружением стала космическая тюрьма «Килн», в которой впервые встретились все участники «Стражей Галактики». Это трехуровневое сооружение, на возведение которого было израсходовано более 160 тонн стали. На этапе пост-продакшена здание было расширено на 60 метров.
• Айзая Мустафа, Брайан Вэйд и Джейсон Момоа рассматривались на роль Дракса.
• Джеймс Ганн заявил на своей странице в Facebook, что в отличие от большинства фильмов, в этом часть сцен будет сниматься уже под написанную Тайлером Бейтсом музыку.
• Первый проект Marvel не о Мстителях, разработанный студией Walt Disney Pictures.
• Фильм основывается на команде персонажей из одноименного комикса 2008 года (Звёздный Лорд, Гамора, Дракс Разрушитель, Ракетный Енот и Грут), но при участии персонажа Йонду, из оригинальных комиксов 1969 года.
• Джоэл Эдгертон, Эдди Редмэйн, Дженсен Эклс, Ли Пейс, Уэс Бентли, Джек Хьюстон, Кэм Жиганде, Салливан Степлтон, Логан Маршалл-Грин, Гаррет Хедлунд, Крис Лоуэлл, Джеймс Марсден, Джим Стёрджесс, Джозеф Гордон-Левитт, Аарон Пол, Гленн Хоуертон, Майкл Розенбаум и Джон Красински прослушивались на роль Звёздного Лорда.
• Оливия Уайлд отказалась от роли Гаморы, а Джина Карано, Рэйчел Николс и Эдрианн Палики проходили прослушивание, но в итоге роль досталась Зои Салдана.
• Планировалось, что Железный человек исполнит эпизодическую роль в этом фильме (поскольку он является последним из Стражей Галактики в комиксах), но от этой идеи отказались после того, как Роберт Дауни мл. сказал, что, возможно, в будущем он не будет исполнять роль Тони Старка.
• Для подготовки к роли Небулы Карен Гиллан пришлось побрить голову.
• Режиссер Джеймс Ганн отметил, что при создании этого фильма источником вдохновения для него был «Железный человек» (2008).
• Во время посещения 18-го кинофестиваля в Нантакет Гленн Клоуз сказала, что согласилась исполнить роль в «Стражах Галактики» потому, что это позволит ей сняться в фильме такого жанра, который ей действительно нравится.
• Джимон Хонсу согласился исполнить роль в этом фильме ради своего маленького сына, который просто обожает супергероев и однажды даже шокировал отца, сказав, что хочет стать белым, для того чтобы стать Человеком-пауком, потому что у Человека-паука белая кожа.
• В рамках подготовки к фильму Крис Прэтт прошел через 6 месяцев тренировок и строгой диеты, в результате он сбросил около 27 кг. Прэтт сказал, что все это было нелегко, но когда он увидел, как его раздетый по пояс персонаж выглядит на экране, он понял, что это того стоило.
• Брэдли Купер отметил, что на то, каким голосом он озвучивал енота, повлияло его впечатление от персонажа Томми ДеВито (Джо Пеши) из фильма «Славные парни» (1990).
• Адам Сэндлер, Дэвид Теннант, Шарлто Копли, Джим Керри и Х. Джон Бенжамин рассматривались как кандидаты на озвучивание енота.
• Бенисио Дель Торо описал своего персонажа как «Либераче в космическом пространстве».
• По словам продюсера Виктории Алонсо, персонажи енота и Грута были созданы за счет сочетания технологии захвата движения и ротоскопирования. Роль енота при этом исполнил брат Джеймса Ганна – Шон Ганн.
• Во время съемок на площадке постоянно играла музыка, написанная Тайлером Бейтсом специально для фильма. По мнению режиссёра Джеймса Ганна, именно музыка помогает создать на площадке уникальную атмосферу, которая настраивает всю группу на нужный лад. Кстати, помимо оригинального саундтрека, музыкальный отдел сделал подборку популярных песен 70-х годов, которые Питер Квилл постоянно слушает на своем старом кассетном плеере.
• Четыре месяца команда реквизиторов провела в поисках кассетного плеера, с которым по сюжету почти никогда не расстается Питер Квилл. В итоге им удалось отыскать всего 16 плееров в разном состоянии, которые подошли для съемок в фильме.
• Прототипом космического корабля «Милано», принадлежащего Питеру Квиллу, послужил самолёт с ракетным двигателем Bell Aircraft X-1. «Милано» представляет собой двухуровневую сложную декорацию: наверху расположена кабина экипажа, а внизу — жилые помещения. Над возведением корабля несколько мастерских трудились около двух недель. Внутреннее обустройство корабля Питера должно было не только напоминать ему о Земле, но и отвечать последнему слову технического прогресса – вся приборная панель отделана высококачественными материалами, хромом и кожей, а внешне корабль напоминает гоночный автомобиль.
• За весь период съемок фильма специалисты по пластическому гриму создали порядка 1250 силиконовых накладок для лиц. На площадке работало 50 гримеров, которые были разделены на группы для создания образа каждого персонажа.
• В съемках массовых сцен было задействовано около двух тысяч человек.
• Над созданием артефакта, известного, как «сфера» трудилась команда именитого реквизитора Барри Гиббса. Внешний корпус конструкции выполнен из покрытого серебром алюминия, на который предварительно нанесли окисляющий раствор, а затем просверлили множество отверстий.
• Бенисио Дель Торо, чтобы перевоплотиться в Коллекционера, прошел процедуру осветления волос и бровей.
• Над созданием запоминающегося образа Дракса трудилась команда из пяти человек. Ежедневно на нанесение пластического грима, состоящего из 18 отдельных накладок для лица и тела, уходило 4 часа. На момент окончания съемок Дэйв Батиста в совокупности провел около 7 суток в руках гримеров.
• Вин Дизель озвучил Грута на нескольких языках, в том числе и на русском.
• В сцене в Руднике Забвения, где Питер Квилл оказывается наедине с Гаморой, Квилл упоминает о легенде, в которой «Кевин Бейкон обучил целый город надутых индюков искусству танца». Речь, очевидно, идет о фильме «Свободные» (1984).

Ляпы в фильме...

• Когда Питер выходит в открытый космос, чтобы спасти Гамору, на его лице появляется лёд и иней, что естественно, но как только они попадают на борт другого космического корабля, то ни льда, ни влаги на лице Питера нет.
• В самом начале, когда Звёздный Лорд идёт похищать сферу, он хватает крысу и использует её как микрофон. В следующем кадре крысы нет, руки пусты, затем — снова есть.
Благодарности релизеру (5)

Торрент:

Статус:

Размер:

Зарегистрирован   [ 2014-11-18 18:44 ]

поглощено

23.89 GB