Торренты   
 
 


Осенний лес 3Д [2014 г., Anamorph SideBySide]

Рейтинг 3D:
Пока никто не голосовал
Рейтинг фильма:
Пока никто не голосовал
 
Вы должны быть авторизированы,
чтобы ставить оценки


Осенний лес 3Д
Год выпуска: 2014
Страна: Россия
Жанр: Природа
Продолжительность: 00.02.53
Описание: Осенняя мини зарисовка в лесу под приятную музыку.Снято на фотоаппарат fujifilm w3
Формат 3D: Anamorph SideBySide

Скриншоты



Media Info

[spoiler=MediaInfo:]Общее Уникальный идентификатор : 168348648403719580577546155723716462494 (0x7EA6C532C2870C1E037BA147C20E879E) Полное имя : D:\Users\Герман\Desktop\Osennij les 3d.mkv Формат : Matroska Версия формата : Version 2 Размер файла : 320 Мбайт Продолжительность : 2 м. 53 с. Общий поток : 15,5 Мбит/сек Программа кодирования : Lavf51.12.1 Библиотека кодирования : Lavf51.12.1 Видео Идентификатор : 1 Формат : AVC Формат/Информация : Advanced Video Codec Профиль формата : Baseline@L4.1 Параметр CABAC формата : Нет Параметр ReFrames формата : 1 кадр Параметр GOP формата : M=1, N=12 Идентификатор кодека : V_MPEG4/ISO/AVC Продолжительность : 2 м. 53 с. Битрейт : 15,1 Мбит/сек Ширина : 1920 пикселей Высота : 1080 пикселей Соотношение сторон : 16:9 Режим частоты кадров : Постоянный Частота кадров : 24,000 кадра/сек Цветовое пространство : YUV Субдискретизация насыщенности : 4:2:0 Битовая глубина : 8 бит Тип развёртки : Прогрессивная Бит/(Пиксели*Кадры) : 0.303 Размер потока : 311 Мбайт (97%) Default : Да Forced : Нет Аудио Идентификатор : 2 Формат : AC-3 Формат/Информация : Audio Coding 3 Расширение режима : CM (complete main) Параметр Endianness формата : Big Идентификатор кодека : A_AC3 Продолжительность : 2 м. 53 с. Вид битрейта : Постоянный Битрейт : 128 Кбит/сек Каналы : 2 канала Расположение каналов : Front: L R Частота : 44,1 КГц Битовая глубина : 16 бит Метод сжатия : С потерями Размер потока : 2,64 Мбайт (1%) Default : Да Forced : Нет
Благодарности релизеру (5)

Торрент:

Статус:

Размер:

Зарегистрирован   [ 2014-11-20 14:45 ]

проверено

320 MB

 
 Мнение о фильме (2)





Просто осенняя красота)
 

Миледи, Вы не правы - хорошее слайдшоу, (из хороших фотографий, конечно) всегда смотреть приятно. Просто мало кто делает и еще меньше выкладывают )!
Ваше слайдшоу мне понравилось - не затянуто, снято с "вылетами", музыка подобрана, и фото неплохого качества, намного лучше, чем в предыдущих Ваших работах, это я Вам как фотограф говорю. Fuji W3, конечно, фото делает намного лучше, чем видео, где хорошо получается только крупный план и требуется стабилизатор или штатив при съемке. Делайте еще, благодарные зрители у Вас есть!