Торренты   
 
 

 

Оз: Возвращение в Изумрудный Город / Legends of Oz: Dorothy's Return (Уилл Финн, Дэн Ст. Пьер) [2013 г., Anamorph OverUnder]

Рейтинг 3D:
1 голосов
8.0
Рейтинг фильма:
1 голосов
8.0
 
Вы должны быть авторизированы,
чтобы ставить оценки


Оз: Возвращение в Изумрудный Город / Legends of Oz: Dorothy's Return
Год выпуска: 2013
Страна: США, Индия (Hyde Park Entertainment, Summertime Entertainment)
Жанр: мультфильм, мюзикл, семейный
Продолжительность: 01:31:57
Перевод: Профессиональный (полное дублирование)
Режиссер: Уилл Финн, Дэн Ст. Пьер
В ролях: Лиа Мишель, Патрик Стюарт, Джеймс Белуши, Дэн Эйкройд, Келси Грэммер, Меган Хилти, Хью Дэнси, Оливер Плэтт, Бернадетт Питерс, Мартин Шорт
Описание: Дороти снова магическим образом переносится в страну Оз, чтобы спасти от беды ее жителей. Но оказывается, что старые друзья Дороти — Страшила, Железный Дровосек и Храбрый Лев — исчезли. Путешествуя по стране в поисках своих друзей, Дороти встречает новых попутчиков — Капитана Зефира, Фарфоровую Принцессу и филина Савву. Дороти должна помочь таким разным героям объединиться, чтобы одолеть нового злодея — шута Джестера, который хочет захватить страну Оз при помощи черной магии.
Доп. информация: Роли озвучивали: Полина Гагарина, Алексей Чумаков, Александр Головчанский, Станислав Дужников, Гарик Харламов
Формат 3D: Anamorph OverUnder
Видео: MPEG-4 AVC/H.264 / 23,976 fps / 1920х1080p / ~10,9 Мбит/сек

Скриншоты



Media Info

General
Unique ID : 222667354458412404154411241855963505686 (0xA7842C2CD1D7B5D7B60D86E0B8222416)
Complete name : E:\Torrentino\LEGEND_OF_OZ_3D.mkv
Format : Matroska
Format version : Version 2
File size : 7.86 GiB
Duration : 1h 31mn
Overall bit rate : 12.2 Mbps
Encoded date : UTC 2014-11-05 08:41:39
Writing application : mkvmerge v7.0.0 ('Where We Going') 32bit built on Jun 9 2014 15:08:34
Writing library : libebml v1.3.0 + libmatroska v1.4.1
DURATION : 01:31:51.872000000
NUMBER_OF_FRAMES : 172246
NUMBER_OF_BYTES : 440949760
_STATISTICS_WRITING_APP : mkvmerge v7.0.0 ('Where We Going') 32bit built on Jun 9 2014 15:08:34
_STATISTICS_WRITING_DATE_UTC : 2014-11-05 08:41:39
_STATISTICS_TAGS : BPS DURATION NUMBER_OF_FRAMES NUMBER_OF_BYTES
Video
ID : 1
Format : AVC
Format/Info : Advanced Video Codec
Format profile : High@L4.1
Format settings, CABAC : Yes
Format settings, ReFrames : 4 frames
Codec ID : V_MPEG4/ISO/AVC
Duration : 1h 31mn
Bit rate : 10.9 Mbps
Width : 1 920 pixels
Height : 1 080 pixels
Display aspect ratio : 16:9
Frame rate mode : Constant
Frame rate : 23.976 fps
Color space : YUV
Chroma subsampling : 4:2:0
Bit depth : 8 bits
Scan type : Progressive
Bits/(Pixel*Frame) : 0.219
Stream size : 7.01 GiB (89%)
Title : rip by I/N
Writing library : x264 core 128 r2216M 198a7ea
Encoding settings : cabac=1 / ref=4 / deblock=1:-3:-3 / analyse=0x3:0x133 / me=umh / subme=10 / psy=1 / psy_rd=1.00:0.15 / mixed_ref=1 / me_range=32 / chroma_me=1 / trellis=2 / 8x8dct=1 / cqm=0 / deadzone=0,0 / fast_pskip=0 / chroma_qp_offset=-3 / threads=8 / lookahead_threads=1 / sliced_threads=0 / nr=0 / decimate=1 / interlaced=0 / bluray_compat=0 / constrained_intra=0 / bframes=8 / b_pyramid=2 / b_adapt=2 / b_bias=0 / direct=3 / weightb=1 / open_gop=0 / weightp=2 / keyint=230 / keyint_min=23 / scenecut=40 / intra_refresh=0 / rc_lookahead=60 / rc=crf / mbtree=1 / crf=17.0 / qcomp=0.60 / qpmin=0 / qpmax=69 / qpstep=4 / vbv_maxrate=40000 / vbv_bufsize=30000 / crf_max=30.0 / nal_hrd=none / ip_ratio=1.40 / aq=1:0.90
Default : Yes
Forced : No
Audio #1
ID : 2
Format : AC-3
Format/Info : Audio Coding 3
Mode extension : CM (complete main)
Format settings, Endianness : Big
Codec ID : A_AC3
Duration : 1h 31mn
Bit rate mode : Constant
Bit rate : 448 Kbps
Channel(s) : 6 channels
Channel positions : Front: L C R, Side: L R, LFE
Sampling rate : 48.0 KHz
Bit depth : 16 bits
Compression mode : Lossy
Stream size : 295 MiB (4%)
Title : Дубляж R5
Language : Russian
Default : Yes
Forced : No
Audio #2
ID : 3
Format : AC-3
Format/Info : Audio Coding 3
Mode extension : CM (complete main)
Format settings, Endianness : Big
Codec ID : A_AC3
Duration : 1h 31mn
Bit rate mode : Constant
Bit rate : 640 Kbps
Channel(s) : 6 channels
Channel positions : Front: L C R, Side: L R, LFE
Sampling rate : 48.0 KHz
Bit depth : 16 bits
Compression mode : Lossy
Stream size : 421 MiB (5%)
Title : Original
Language : English
Default : No
Forced : No
Menu
00:00:00.000 : en:00:00:00.000
00:06:24.175 : en:00:06:24.175
00:14:19.025 : en:00:14:19.025
00:22:12.790 : en:00:22:12.790
00:29:50.122 : en:00:29:50.122
00:37:27.245 : en:00:37:27.245
00:45:16.631 : en:00:45:16.631
00:52:55.339 : en:00:52:55.339
01:00:48.103 : en:01:00:48.103
01:07:44.852 : en:01:07:44.852
01:15:09.964 : en:01:15:09.964
01:22:42.958 : en:01:22:42.958
01:31:57.345 : en:01:31:57.345
Благодарности релизеру (7)

Торрент:

Статус:

Размер:

Зарегистрирован   [ 2014-11-20 16:12 ]

* не проверено

7.86 GB