Торренты   
 
 

 

Стражи Галактики / Guardians of the Galaxy (Джеймс Ганн) [2014 г., Anamorph OverUnder]

Рейтинг 3D:
20 голосов
7.9
Рейтинг фильма:
21 голосов
6.9
 
Вы должны быть авторизированы,
чтобы ставить оценки



Стражи Галактики / Guardians of the Galaxy
Год выпуска: 2014
Страна: США | Marvel Enterprises, Marvel Studios, Moving Picture Company
Жанр: фантастика, боевик, приключения
Продолжительность: 02:00:51
Перевод: Профессиональный (полное дублирование) лицензия
Режиссер: Джеймс Ганн
В ролях: Крис Прэтт, Зои Салдана, Дэйв Батиста, Вин Дизель, Брэдли Купер, Ли Пейс, Майкл Рукер, Карен Гиллан, Джимон Хонсу, Джон Си Райли
Описание: Питер Квилл становится жертвой охотников за головами после кражи таинственной сферы, за которой охотился Ронан- могущественный злодей, полный амбиций и угрожающий целой вселенной. Чтобы одолеть Ронана, Питеру приходится объединиться с квартетом отбросов: вооружённым до зубов Ракетным енотом, древоподобным гуманоидом Грутом, смертельно опасной и загадочной Гаморой и мстительным Драксом Разрушителем. Но когда Питер обнаруживает истинную силу сферы и узнаёт насколько она опасна для космоса, он должен сделать всё возможное, чтобы сплотить всех членов команды для последнего противостояния и вернуть баланс во всей Галактике.
Качество: BDrip
Контейнер: MKV
Формат 3D: Anamorph OverUnder / Вертикальная анаморфная стереопара
Порядок ракурсов: левый ракурс первый
Видео кодек: x264
Аудио кодек: AC-3
Видео: AVC, High@L4.1, 1920х1080, 23,976 кадра/сек, 7074 Кбит/сек
Аудио:
Russian: 48 kHz, AC3, 3/2 (L,C,R,l,r) + LFE ch, ~640.00 kbps avg |Дубляж, Blu-ray EUR|
English: 48 kHz, AC3, 3/2 (L,C,R,l,r) + LFE ch, ~640.00 kbps avg (Original)
Cубтитры: русские, английские

Скриншоты

Media Info

Общее
Уникальный идентификатор : 246915496942342208516835528759733279821 (0xB9C231E6E581DC239833B169F9165C4D)
Полное имя : H:\Source\GuardiansOfTheGalaxy.3D.2014.BDrip.Half.OU.x264.AC3.(itsamna).mkv
Формат : Matroska
Версия формата : Version 4 / Version 2
Размер файла : 7,20 Гбайт
Продолжительность : 2 ч. 0 м.
Общий поток : 8524 Кбит/сек
Название фильма : Guardians of the Galaxy (2014) 3D rip by itsamna aka StarStranger (release 3D-RuGroup)
Дата кодирования : UTC 2014-11-20 10:58:41
Программа кодирования : mkvmerge v6.8.0 ('Theme for Great Cities') 32bit built on Mar 2 2014 21:27:07
Библиотека кодирования : libebml v1.3.0 + libmatroska v1.4.1
Видео
Идентификатор : 1
Формат : AVC
Формат/Информация : Advanced Video Codec
Профиль формата : High@L4.1
Параметр CABAC формата : Да
Параметр ReFrames формата : 4 кадра
Идентификатор кодека : V_MPEG4/ISO/AVC
Продолжительность : 2 ч. 0 м.
Битрейт : 7074 Кбит/сек
Ширина : 1920 пикселей
Высота : 1080 пикселей
Соотношение сторон : 16:9
Режим частоты кадров : Постоянный
Частота кадров : 23,976 кадра/сек
Цветовое пространство : YUV
Субдискретизация насыщенности : 4:2:0
Битовая глубина : 8 бит
Тип развёртки : Прогрессивная
Бит/(Пиксели*Кадры) : 0.142
Размер потока : 5,97 Гбайт (83%)
Библиотека кодирования : x264 core 130 r2273 b3065e6
Настройки программы : cabac=1 / ref=4 / deblock=1:-3:-3 / analyse=0x3:0x133 / me=umh / subme=10 / psy=1 / psy_rd=1.00:0.15 / mixed_ref=1 / me_range=32 / chroma_me=1 / trellis=2 / 8x8dct=1 / cqm=0 / deadzone=21,11 / fast_pskip=0 / chroma_qp_offset=-3 / threads=12 / lookahead_threads=2 / sliced_threads=0 / nr=0 / decimate=1 / interlaced=0 / bluray_compat=0 / constrained_intra=0 / bframes=8 / b_pyramid=2 / b_adapt=2 / b_bias=0 / direct=3 / weightb=1 / open_gop=0 / weightp=2 / keyint=250 / keyint_min=23 / scenecut=40 / intra_refresh=0 / rc_lookahead=60 / rc=crf / mbtree=1 / crf=17.0 / qcomp=0.60 / qpmin=0 / qpmax=69 / qpstep=4 / vbv_maxrate=50000 / vbv_bufsize=62500 / crf_max=0.0 / nal_hrd=none / ip_ratio=1.40 / aq=1:0.90
Default : Да
Forced : Нет
Аудио #1
Идентификатор : 2
Формат : AC-3
Формат/Информация : Audio Coding 3
Расширение режима : CM (complete main)
Параметр Endianness формата : Big
Идентификатор кодека : A_AC3
Продолжительность : 2 ч. 0 м.
Вид битрейта : Постоянный
Битрейт : 640 Кбит/сек
Каналы : 6 каналов
Расположение каналов : Front: L C R, Side: L R, LFE
Частота : 48,0 КГц
Битовая глубина : 16 бит
Метод сжатия : С потерями
Размер потока : 553 Мбайт (8%)
Заголовок : Dub Blu-ray EUR
Язык : Russian
Default : Да
Forced : Нет
Аудио #2
Идентификатор : 3
Формат : AC-3
Формат/Информация : Audio Coding 3
Расширение режима : CM (complete main)
Параметр Endianness формата : Big
Идентификатор кодека : A_AC3
Продолжительность : 2 ч. 0 м.
Вид битрейта : Постоянный
Битрейт : 640 Кбит/сек
Каналы : 6 каналов
Расположение каналов : Front: L C R, Side: L R, LFE
Частота : 48,0 КГц
Битовая глубина : 16 бит
Метод сжатия : С потерями
Размер потока : 553 Мбайт (8%)
Язык : English
Default : Нет
Forced : Нет
Текст #1
Идентификатор : 4
Формат : UTF-8
Идентификатор кодека : S_TEXT/UTF8
Идентификатор кодека/Информация : UTF-8 Plain Text
Заголовок : Forced
Язык : Russian
Default : Да
Forced : Нет
Текст #2
Идентификатор : 5
Формат : UTF-8
Идентификатор кодека : S_TEXT/UTF8
Идентификатор кодека/Информация : UTF-8 Plain Text
Язык : Russian
Default : Нет
Forced : Нет
Текст #3
Идентификатор : 6
Формат : UTF-8
Идентификатор кодека : S_TEXT/UTF8
Идентификатор кодека/Информация : UTF-8 Plain Text
Язык : English
Default : Нет
Forced : Нет
Меню
00:00:00.000 : en:1
00:04:06.000 : en:2
00:11:22.000 : en:3
00:15:22.000 : en:4
00:20:55.000 : en:5
00:27:12.000 : en:6
00:33:59.000 : en:7
00:44:29.000 : en:8
00:50:54.000 : en:9
00:55:18.000 : en:10
00:59:46.000 : en:11
01:06:08.000 : en:12
01:14:46.000 : en:13
01:22:19.000 : en:14
01:26:30.000 : en:15
01:30:25.000 : en:16
01:35:59.000 : en:17
01:40:47.000 : en:18
01:47:36.000 : en:19
01:53:18.000 : en:20
02:00:11.000 : en:21
--Релиз группы:

Проверено на встроенном плейере ТВ LG 42LW4500
--
Благодарности релизеру (26)

Торрент:

Статус:

Размер:

Зарегистрирован   [ 2014-11-20 16:29 ]

проверено

7.2 GB

 
 Мнение о фильме (22)

1, 2  След.






хороший красочный фильм в своем жанре комиксов. картинка норм.
 

StarStranger
А что за полосы по бокам?
 

killer29, как будто первый раз 3D смотришь...
 

А что за полосы по бокам?
А как еще регулировать паралакс при монтаже. К стати, при просмотре их практически не видно, так как на каждый глаз своя полоса.
 

Понять не могу, почему на последних двух скринах картинка без черных полос с верху и низу, а на предыдущих полосы есть?!
 

asich83,
Это IMAX
 

killer29,
Тоесть часть фильма на полный экран, а часть с полосами будет? Что за бред?
 

killer29, как будто первый раз 3D смотришь...
Да первый раз с таким сталкиваюсь...кстати на ремуксе тоже такое наблюдается...
 

asich83,
Ждем КРОП
 

killer29, ага, ждем CROP
 

killer29, такое много где наблюдается) как выше написал Dag13, это связано с паралаксом.
 

Ясно....спасибо
Вот опять Dag13 достанется с кропом...Вот одна из цитат...
Глянул IMAX-версию. За весь фильм насчитал 37 вставок с IMAX-фрагментами. Продолжительность у них от нескольких секунд до трёх минут приблизительно.
 

Ну только на Dag13 все надежды!!!
 

Спасибо! Лучший релиз Стражей в 3д на данный момент, хотя и всего 7 Gb весит.
Жду без полос.
 
Петрухин Константин Профиль 20-Ноя-2014 21:55

Фильм улётный! Редко такие появляются. Очень надеюсь что Dag13 сделает crop...
 

Dag13, we're really awaiting for Your masterpiece... I'm not kidding!
 

За весь фильм насчитал 37 вставок с IMAX-фрагментами
Если быть точным, то по 43, не знаю как назвать, сцены, вставки, полосатых и имаксовских.
Большая часть натурных съемок полосатая, космос и и где много рендеринга безполосые.
Причем некоторый рендер специально выводили с полосами. Сначала подумал что с Дарвина срисовали, но один момент на весь фильм. Больше похоже на косяк.
 

А мне даже нравится такой формат )
 

а когда без полос будет?
 

Rashen74, уже есть http://torrents3d.ru/article/11051/
 

Страница 1 из 2

1, 2  След.