Торренты   
 
 


Планета обезьян / Dawn of the Planet of the Apes (Мэтт Ривз) [2014 г. Anamorph SideBySide]

Рейтинг 3D:
15 голосов
5.8
Рейтинг фильма:
16 голосов
5.3
 
Вы должны быть авторизированы,
чтобы ставить оценки


Планета обезьян / Dawn of the Planet of the Apes
Год выпуска: 2014
Страна: США / Chernin Entertainment, Ingenious Media, TSG Entertainment, Gentle Giant Studios Inc., Spectrum Effects, The Imaginarium Studios, Weta Digital
Жанр: фантастика, боевик, драма
Продолжительность: 02:10:28
Перевод: Профессиональный дублированный (лицензия) + Одноголосый закадровый + Украинский дубляж
Субтитры:Russian, English
Режиссер: Мэтт Ривз
В ролях: Caesar - Энди Серкис (Андрей Пирог),Malcolm - Джейсон Кларк (Максим Сергеев), Dreyfus - Гари Олдман (Вадим Романов),Ellie - Кери Рассел (Светлана Кузнецова), Koba - Тоби Кеббелл (Владимир Черных),Alexander - Коди Смит-МакФи (Иван Чабан), Carver - Кирк Асеведо (Сергей Дьячков),Blue Eyes - Ник Тёрстон, Rocket - Терри Нотари, Maurice - Карин Коновал, Cornelia - Джуди Грир
Описание: Caesar - Энди Серкис (Андрей Пирог)
Malcolm - Джейсон Кларк (Максим Сергеев)
Dreyfus - Гари Олдман (Вадим Романов)
Ellie - Кери Рассел (Светлана Кузнецова)
Koba - Тоби Кеббелл (Владимир Черных)
Alexander - Коди Смит-МакФи (Иван Чабан)
Carver - Кирк Асеведо (Сергей Дьячков)
Blue Eyes - Ник Тёрстон
Rocket - Терри Нотари
Maurice - Карин Коновал
Cornelia - Джуди Грир
Доп. информация:
Аудио:
#1 - Русский / AC3 / 48 KHz / 5.1 ch / 640 Kbps (Дубляж - BD CEE)
#2 - Русский / AC3 / 48 KHz / 5.1 ch / 640 Kbps (VO - Д. Есарев) (озвучена и речь обезьян)
#3 - Украинский / AC3 / 48 KHz / 5.1 ch / 448 Kbps (Дубляж - BD CEE)
#4 - Английский / AC3 / 48 KHz / 5.1 ch / 640 Kbps (Original - BD 3D)
Субтитры: (SRT)
Вшитые (softsub):
#1 - Русские Форсированные (на речь обезьян) [включены по умолчанию]
#2 - Русские Полные
#2 - Украинские Форсированные (на речь обезьян)
#2 - Украинские Полные
#3 - English Forced (on ape language)
#4 - English Full
Внешние (UTF-8 ):
#1 - Русские Форсированные (на речь обезьян) [включены по умолчанию]
#2 - Украинские Форсированные (на речь обезьян)
Формат 3D: Anamorph SideBySide
Видео: AVC, 1920x1080 (16:9), 23.976 fps, 17.0 Mbps (0.342 bit/pixel)

Скриншоты


Media Info

General
Unique ID : 208052690750301907315619198888712025456 (0x9C857D9F57DC5DDFB082F37504EB3570)
Complete name : E:DawnOfThePlanetOfTheApes(2014)3D-halfOU(Rip.HDAccess)DawnOfThePlanetOfTheApes(2014)3D-halfOU(Rip.HDAccess).mkv
Format : Matroska
Format version : Version 3 / Version 2
File size : 18.0 GiB
Duration : 2h 10mn
Overall bit rate : 19.8 Mbps
Movie name : Планета обезьян: Революция / Dawn of the Planet of the Apes (2014) 3D
Encoded date : UTC 2014-11-24 19:37:59
Writing application : mkvmerge v5.8.0 ('No Sleep / Pillow') built on Sep 2 2012 15:37:04
Writing library : libebml v1.2.3 + libmatroska v1.3.0
Video
ID : 1
Format : AVC
Format/Info : Advanced Video Codec
Format profile : High@L4.1
MultiView_Count : 2
MultiView_Layout : Side by Side (left eye first)
Format settings, CABAC : Yes
Format settings, ReFrames : 4 frames
Codec ID : V_MPEG4/ISO/AVC
Duration : 2h 10mn
Bit rate : 17.0 Mbps
Width : 1 920 pixels
Height : 1 080 pixels
Display aspect ratio : 16:9
Frame rate mode : Constant
Frame rate : 23.976 fps
Color space : YUV
Chroma subsampling : 4:2:0
Bit depth : 8 bits
Scan type : Progressive
Bits/(Pixel*Frame) : 0.342
Stream size : 15.5 GiB (86%)
Title : BDRip by HDAccess
Writing library : x264 core 133 r2334kMod a3ac64b
Encoding settings : cabac=1 / ref=4 / deblock=1:-3:-3 / analyse=0x3:0x133 / me=umh / subme=10 / psy=1 / fade_compensate=0.00 / psy_rd=1.00:0.00 / mixed_ref=1 / me_range=24 / chroma_me=1 / trellis=2 / 8x8dct=1 / cqm=0 / deadzone=21,11 / fast_pskip=0 / chroma_qp_offset=-2 / threads=18 / lookahead_threads=3 / sliced_threads=0 / nr=0 / decimate=0 / interlaced=0 / bluray_compat=0 / constrained_intra=0 / bframes=8 / b_pyramid=2 / b_adapt=2 / b_bias=0 / direct=3 / weightb=1 / open_gop=0 / weightp=2 / keyint=250 / keyint_min=23 / scenecut=40 / intra_refresh=0 / rc=crf / mbtree=0 / crf=18.5000 / qcomp=0.75 / qpmin=0 / qpmax=69 / qpstep=4 / frame-packing=3 / ip_ratio=1.30 / pb_ratio=1.10 / aq=3:0.85
Language : English
Default : Yes
Forced : No
Audio #1
ID : 2
Format : AC-3
Format/Info : Audio Coding 3
Mode extension : CM (complete main)
Format settings, Endianness : Big
Codec ID : A_AC3
Duration : 2h 10mn
Bit rate mode : Constant
Bit rate : 640 Kbps
Channel(s) : 6 channels
Channel positions : Front: L C R, Side: L R, LFE
Sampling rate : 48.0 KHz
Bit depth : 16 bits
Compression mode : Lossy
Stream size : 597 MiB (3%)
Title : Дубляж - BD CEE
Language : Russian
Default : Yes
Forced : No
Audio #2
ID : 3
Format : AC-3
Format/Info : Audio Coding 3
Mode extension : CM (complete main)
Format settings, Endianness : Big
Codec ID : A_AC3
Duration : 2h 10mn
Bit rate mode : Constant
Bit rate : 640 Kbps
Channel(s) : 6 channels
Channel positions : Front: L C R, Side: L R, LFE
Sampling rate : 48.0 KHz
Bit depth : 16 bits
Compression mode : Lossy
Stream size : 597 MiB (3%)
Title : Одноголосый закадровый - Д. Есарев
Language : Russian
Default : No
Forced : No
Audio #3
ID : 4
Format : AC-3
Format/Info : Audio Coding 3
Mode extension : CM (complete main)
Format settings, Endianness : Big
Codec ID : A_AC3
Duration : 2h 10mn
Bit rate mode : Constant
Bit rate : 448 Kbps
Channel(s) : 6 channels
Channel positions : Front: L C R, Side: L R, LFE
Sampling rate : 48.0 KHz
Bit depth : 16 bits
Compression mode : Lossy
Stream size : 418 MiB (2%)
Title : Дубляж - BD CEE
Language : Ukrainian
Default : No
Forced : No
Audio #4
ID : 5
Format : AC-3
Format/Info : Audio Coding 3
Mode extension : CM (complete main)
Format settings, Endianness : Big
Codec ID : A_AC3
Duration : 2h 10mn
Bit rate mode : Constant
Bit rate : 640 Kbps
Channel(s) : 6 channels
Channel positions : Front: L C R, Side: L R, LFE
Sampling rate : 48.0 KHz
Bit depth : 16 bits
Compression mode : Lossy
Stream size : 597 MiB (3%)
Title : Original - BD 3D
Language : English
Default : No
Forced : No
Text #1
ID : 6
Format : UTF-8
Codec ID : S_TEXT/UTF8
Codec ID/Info : UTF-8 Plain Text
Title : Форсированные (на речь обезьян)
Language : Russian
Default : Yes
Forced : No
Text #2
ID : 7
Format : UTF-8
Codec ID : S_TEXT/UTF8
Codec ID/Info : UTF-8 Plain Text
Title : Полные
Language : Russian
Default : No
Forced : No
Text #3
ID : 8
Format : UTF-8
Codec ID : S_TEXT/UTF8
Codec ID/Info : UTF-8 Plain Text
Title : Форсированные (на речь обезьян)
Language : Ukrainian
Default : No
Forced : No
Text #4
ID : 9
Format : UTF-8
Codec ID : S_TEXT/UTF8
Codec ID/Info : UTF-8 Plain Text
Title : Полные
Language : Ukrainian
Default : No
Forced : No
Text #5
ID : 10
Format : UTF-8
Codec ID : S_TEXT/UTF8
Codec ID/Info : UTF-8 Plain Text
Title : Forced
Language : English
Default : No
Forced : No
Text #6
ID : 11
Format : UTF-8
Codec ID : S_TEXT/UTF8
Codec ID/Info : UTF-8 Plain Text
Title : Full
Language : English
Default : No
Forced : No
Menu
00:00:00.000 : en:00:00:00.000
00:03:21.159 : en:00:03:21.159
00:07:34.913 : en:00:07:34.913
00:12:36.547 : en:00:12:36.547
00:16:23.566 : en:00:16:23.566
00:18:47.043 : en:00:18:47.043
00:21:52.478 : en:00:21:52.478
00:25:26.692 : en:00:25:26.692
00:29:45.867 : en:00:29:45.867
00:31:50.617 : en:00:31:50.617
00:36:43.743 : en:00:36:43.743
00:39:07.554 : en:00:39:07.554
00:40:57.163 : en:00:40:57.163
00:44:12.233 : en:00:44:12.233
00:48:11.138 : en:00:48:11.138
00:50:31.528 : en:00:50:31.528
00:53:48.016 : en:00:53:48.016
00:57:25.317 : en:00:57:25.317
01:01:18.466 : en:01:01:18.466
01:02:35.377 : en:01:02:35.377
01:04:24.069 : en:01:04:24.069
01:06:21.728 : en:01:06:21.728
01:09:31.334 : en:01:09:31.334
01:13:56.974 : en:01:13:56.974
01:17:17.925 : en:01:17:17.925
01:20:53.390 : en:01:20:53.390
01:23:28.754 : en:01:23:28.754
01:26:08.997 : en:01:26:08.997
01:28:19.252 : en:01:28:19.252
01:33:24.390 : en:01:33:24.390
01:35:53.122 : en:01:35:53.122
01:38:38.621 : en:01:38:38.621
01:40:42.536 : en:01:40:42.536
01:44:07.533 : en:01:44:07.533
01:46:05.317 : en:01:46:05.317
01:47:54.468 : en:01:47:54.468
01:52:13.769 : en:01:52:13.769
01:56:27.480 : en:01:56:27.480
02:00:31.015 : en:02:00:31.015
02:01:35.038 : en:02:01:35.038
Благодарности релизеру (21)

Торрент:

Статус:

Размер:

Зарегистрирован   [ 2014-11-25 13:05 ]

проверено

18.01 GB