Торренты   
 
 


Планета обезьян: Революция / Dawn of the Planet of the Apes (Мэтт Ривз) [2014 г., Anamorph OverUnder]

Рейтинг 3D:
26 голосов
5.8
Рейтинг фильма:
29 голосов
6.1
 
Вы должны быть авторизированы,
чтобы ставить оценки



Планета обезьян: Революция / Dawn of the Planet of the Apes
Год выпуска: 2014
Страна: США / TSG Entertainment, Chernin Entertainment, Ingenious Media
Жанр: фантастика, боевик, драма
Продолжительность: 02:10:24
Перевод: Профессиональный (полное дублирование) лицензия
Режиссер: Мэтт Ривз
В ролях: Энди Серкис, Джейсон Кларк, Гари Олдман, Кери Рассел, Тоби Кеббелл, Коди Смит-МакФи, Кирк Асеведо, Ник Тёрстон, Терри Нотари, Карин Коновал
Описание: Численность генетически модифицированных обезьян, возглавляемых Цезарем, продолжает увеличиваться, но обезьянам угрожают люди, которым удалось выжить во время ужасной эпидемии десятилетней давности. Поначалу между соперниками устанавливается хрупкий мир, но он оказывается недолговечным. Обезьяны и люди находятся на грани войны, в ходе которой станет понятно, кто из них в будущем станет безраздельно править планетой.
Качество: BDrip
Контейнер: MKV
Формат 3D: Anamorph OverUnder / Вертикальная анаморфная стереопара
Порядок ракурсов: левый ракурс первый
Видео кодек: x264
Аудио кодек: AC-3
Видео: AVC, High@L4.1, 1920х1080, 23,976 кадра/сек, 10,5 Мбит/сек
Аудио:
Russian: 48 kHz, AC3 Dolby Digital, 3/2 (L,C,R,l,r) + LFE ch, ~640.00 kbps avg |Дубляж, Blu-ray EUR|
Russian: 48 kHz, AC3 Dolby Digital, 3/2 (L,C,R,l,r) + LFE ch, ~448.00 kbps avg |Авторский одноголосый (Дмитрий Есарев)
English: 48 kHz, AC3Dolby Digital, 3/2 (L,C,R,l,r) + LFE ch, ~640.00 kbps avg |Original
Cубтитры: Русские (полные + форс.), украинские (полные + форс.), английские (Forced + Full)

Скриншоты

Media Info

Общее
Уникальный идентификатор : 233364325709631186408540137941687542753 (0xAF9055939C04FD50B68BED40C69F23E1)
Полное имя : D:\DawnOfThePlanetOfTheApes.3D.2014.BDRip.Half.OU.x264.AC3.(itsamna).mkv
Формат : Matroska
Версия формата : Version 4 / Version 2
Размер файла : 11,4 Гбайт
Продолжительность : 2 ч. 10 м.
Общий поток : 12,5 Мбит/сек
Название фильма : Dawn of the Planet of the Apes (2014) 3D rip by itsamna aka StarStranger (release 3D-RuGroup)
Дата кодирования : UTC 2014-11-27 08:06:19
Программа кодирования : mkvmerge v6.8.0 ('Theme for Great Cities') 32bit built on Mar 2 2014 21:27:07
Библиотека кодирования : libebml v1.3.0 + libmatroska v1.4.1
Видео
Идентификатор : 1
Формат : AVC
Формат/Информация : Advanced Video Codec
Профиль формата : High@L4.1
Параметр CABAC формата : Да
Параметр ReFrames формата : 4 кадра
Идентификатор кодека : V_MPEG4/ISO/AVC
Продолжительность : 2 ч. 10 м.
Битрейт : 10,5 Мбит/сек
Ширина : 1920 пикселей
Высота : 1080 пикселей
Соотношение сторон : 16:9
Режим частоты кадров : Постоянный
Частота кадров : 23,976 кадра/сек
Цветовое пространство : YUV
Субдискретизация насыщенности : 4:2:0
Битовая глубина : 8 бит
Тип развёртки : Прогрессивная
Бит/(Пиксели*Кадры) : 0.212
Размер потока : 9,60 Гбайт (84%)
Библиотека кодирования : x264 core 130 r2273 b3065e6
Настройки программы : cabac=1 / ref=4 / deblock=1:-3:-3 / analyse=0x3:0x133 / me=umh / subme=10 / psy=1 / psy_rd=1.00:0.15 / mixed_ref=1 / me_range=32 / chroma_me=1 / trellis=2 / 8x8dct=1 / cqm=0 / deadzone=21,11 / fast_pskip=0 / chroma_qp_offset=-3 / threads=12 / lookahead_threads=2 / sliced_threads=0 / nr=0 / decimate=1 / interlaced=0 / bluray_compat=0 / constrained_intra=0 / bframes=8 / b_pyramid=2 / b_adapt=2 / b_bias=0 / direct=3 / weightb=1 / open_gop=0 / weightp=2 / keyint=250 / keyint_min=23 / scenecut=40 / intra_refresh=0 / rc_lookahead=60 / rc=crf / mbtree=1 / crf=18.0 / qcomp=0.60 / qpmin=0 / qpmax=69 / qpstep=4 / vbv_maxrate=50000 / vbv_bufsize=62500 / crf_max=0.0 / nal_hrd=none / ip_ratio=1.40 / aq=1:0.90
Default : Да
Forced : Нет
Аудио #1
Идентификатор : 2
Формат : AC-3
Формат/Информация : Audio Coding 3
Расширение режима : CM (complete main)
Параметр Endianness формата : Big
Идентификатор кодека : A_AC3
Продолжительность : 2 ч. 10 м.
Вид битрейта : Постоянный
Битрейт : 640 Кбит/сек
Каналы : 6 каналов
Расположение каналов : Front: L C R, Side: L R, LFE
Частота : 48,0 КГц
Битовая глубина : 16 бит
Метод сжатия : С потерями
Размер потока : 597 Мбайт (5%)
Заголовок : Dub | DD 5.1 @ 640 kbps - Blu-Ray CEE
Язык : Russian
Default : Да
Forced : Нет
Аудио #2
Идентификатор : 3
Формат : AC-3
Формат/Информация : Audio Coding 3
Расширение режима : CM (complete main)
Параметр Endianness формата : Big
Идентификатор кодека : A_AC3
Продолжительность : 2 ч. 10 м.
Вид битрейта : Постоянный
Битрейт : 448 Кбит/сек
Каналы : 6 каналов
Расположение каналов : Front: L C R, Side: L R, LFE
Частота : 48,0 КГц
Битовая глубина : 16 бит
Метод сжатия : С потерями
Размер потока : 418 Мбайт (4%)
Заголовок : Авторский одноголосый (Д.Есарев)
Язык : Russian
Default : Нет
Forced : Нет
Аудио #3
Идентификатор : 4
Формат : AC-3
Формат/Информация : Audio Coding 3
Расширение режима : CM (complete main)
Параметр Endianness формата : Big
Идентификатор кодека : A_AC3
Продолжительность : 2 ч. 10 м.
Вид битрейта : Постоянный
Битрейт : 640 Кбит/сек
Каналы : 6 каналов
Расположение каналов : Front: L C R, Side: L R, LFE
Частота : 48,0 КГц
Битовая глубина : 16 бит
Метод сжатия : С потерями
Размер потока : 597 Мбайт (5%)
Заголовок : Original | DD 5.1 @ 640 kbps
Язык : English
Default : Нет
Forced : Нет
Текст #1
Идентификатор : 5
Формат : UTF-8
Идентификатор кодека : S_TEXT/UTF8
Идентификатор кодека/Информация : UTF-8 Plain Text
Заголовок : форс.
Язык : Russian
Default : Да
Forced : Нет
Текст #2
Идентификатор : 6
Формат : UTF-8
Идентификатор кодека : S_TEXT/UTF8
Идентификатор кодека/Информация : UTF-8 Plain Text
Заголовок : полные
Язык : Russian
Default : Нет
Forced : Нет
Текст #3
Идентификатор : 7
Формат : UTF-8
Идентификатор кодека : S_TEXT/UTF8
Идентификатор кодека/Информация : UTF-8 Plain Text
Заголовок : форс.
Язык : Ukrainian
Default : Нет
Forced : Нет
Текст #4
Идентификатор : 8
Формат : UTF-8
Идентификатор кодека : S_TEXT/UTF8
Идентификатор кодека/Информация : UTF-8 Plain Text
Заголовок : полные
Язык : Ukrainian
Default : Нет
Forced : Нет
Текст #5
Идентификатор : 9
Формат : UTF-8
Идентификатор кодека : S_TEXT/UTF8
Идентификатор кодека/Информация : UTF-8 Plain Text
Заголовок : Forced
Язык : English
Default : Нет
Forced : Нет
Текст #6
Идентификатор : 10
Формат : UTF-8
Идентификатор кодека : S_TEXT/UTF8
Идентификатор кодека/Информация : UTF-8 Plain Text
Заголовок : Full
Язык : English
Default : Нет
Forced : Нет
Меню
00:00:00.000 : en:(01)00:00:00:000
00:03:21.159 : en:(02)00:03:21:159
00:07:34.912 : en:(03)00:07:34:912
00:12:36.547 : en:(04)00:12:36:547
00:16:23.565 : en:(05)00:16:23:565
00:18:47.042 : en:(06)00:18:47:042
00:21:52.477 : en:(07)00:21:52:477
00:25:26.691 : en:(08)00:25:26:691
00:29:45.867 : en:(09)00:29:45:867
00:31:50.617 : en:(10)00:31:50:617
00:36:43.743 : en:(11)00:36:43:743
00:39:07.553 : en:(12)00:39:07:553
00:40:57.163 : en:(13)00:40:57:163
00:44:12.232 : en:(14)00:44:12:232
00:48:11.138 : en:(15)00:48:11:138
00:50:31.528 : en:(16)00:50:31:528
00:53:48.016 : en:(17)00:53:48:016
00:57:25.316 : en:(18)00:57:25:316
01:01:18.466 : en:(19)01:01:18:466
01:02:35.376 : en:(20)01:02:35:376
01:04:24.068 : en:(21)01:04:24:068
01:06:21.727 : en:(22)01:06:21:727
01:09:31.333 : en:(23)01:09:31:333
01:13:56.974 : en:(24)01:13:56:974
01:17:17.924 : en:(25)01:17:17:924
01:20:53.390 : en:(26)01:20:53:390
01:23:28.753 : en:(27)01:23:28:753
01:26:08.997 : en:(28)01:26:08:997
01:28:19.252 : en:(29)01:28:19:252
01:33:24.390 : en:(30)01:33:24:390
01:35:53.122 : en:(31)01:35:53:122
01:38:38.621 : en:(32)01:38:38:621
01:40:42.536 : en:(33)01:40:42:536
01:44:07.532 : en:(34)01:44:07:532
01:46:05.317 : en:(35)01:46:05:317
01:47:54.468 : en:(36)01:47:54:468
01:52:13.768 : en:(37)01:52:13:768
01:56:27.480 : en:(38)01:56:27:480
02:00:31.015 : en:(39)02:00:31:015
02:01:35.037 : en:(40)02:01:35:037
02:10:24.024 : en:(41)02:10:24:024
--Релиз группы:

Проверено на встроенном плейере ТВ LG 42LW4500
--
Благодарности релизеру (41)

Торрент:

Статус:

Размер:

Зарегистрирован   [ 2014-11-27 14:08 ]

проверено

11.4 GB

 
 Мнение о фильме (7)





Отвратительный конверт обычного 2D. Никакого объема нет и в помине. Удаляю.
 

3д вобше нет. а фильм хороший
 

фильм-жалкая попытка повторить крутизну 1-й части.
очень неудачная попытка,всё,вроде на месте,а смотреть до ужаса скучно(в отличии от 1-й части)
 

Один из немногих фильмов, которые можно смотреть по несколько раз. Снят просто изумительно,но 3-d вообще нет.
 

Одним словом - какешка (это без ругательств)!
 

в общем, шмотье, оставшееся от Властелина колец не пропало. Обезяны вылитые орки и такие же противные. Фильм - бред собачий. Не осилил. Спасибо за раздачу.
ПЫС. 3Д так себе, но хоть что то. ибо все остальное мрак.
 

фильм-жалкая попытка повторить крутизну 1-й части.
А че, первая часть была крутая типа? Вы меня простите, возможно я отходил и просрал все лучшие "шедевры" голливудского дерьма. :)))))
в общем, шмотье, оставшееся от Властелина колец не пропало. Обезяны вылитые орки и такие же противные. Фильм - бред собачий. Не осилил
Вот с этим я полностью согласен! :D