Торренты   
 
 

 

Черепашки-ниндзя / Teenage Mutant Ninja Turtles (Джонатан Либесман) [2014 г., Anamorph OverUnder]

Рейтинг 3D:
23 голосов
7.4
Рейтинг фильма:
24 голосов
6.8
 
Вы должны быть авторизированы,
чтобы ставить оценки



Черепашки-ниндзя / Teenage Mutant Ninja Turtles
Год выпуска: 2014
Страна: США (Paramount Pictures, Nikelodeon Movies, Platinum Dunes)
Жанр: фантастика, фэнтези, боевик, комедия, приключения
Продолжительность: 1:41:18
Перевод: Профессиональный (полное дублирование) Blu-ray CEE
Режиссер: Джонатан Либесман
В ролях: Меган Фокс, Уилл Арнетт, Уильям Фихтнер, Алан Ричсон, Ноэль Фишер, Пит Пложек, Джонни Ноксвил, Джереми Ховард, Дэнни Вудберн, Тони Шэлуб
Описание: Город нуждается в героях. Тьма окутала Нью-Йорк в виде Шреддера и его зловещего Клана Футов, у которого имеется железный контроль над всеми, от полицейских до политиков. Будущее выглядит мрачным, пока из канализации не поднимается и не раскрывает своё предназначение четвёрка отверженных братьев — Черепашки-ниндзя. Черепашки должны работать вместе с бесстрашным репортёром Эйприл и её саркастическим оператором Верном Фенвиком, чтобы спасти город и разгадать дьявольский план Шреддера.
Качество: BDrip
Контейнер: MKV
Формат 3D: Anamorph OverUnder / Вертикальная анаморфная стереопара
Порядок ракурсов: левый ракурс первый
Видео кодек: x264
Аудио кодек: AC-3
Видео: AVC, High@L4.1, 1920х1080, 23,976 кадра/сек, 9941 Кбит/сек
Аудио:
Russian: 48 kHz, AC3 Dolby Digital, 3/2 (L,C,R,l,r) + LFE ch, ~640.00 kbps avg |Дубляж, Blu-ray CEE|
English: 48 kHz, AC3Dolby Digital, 3/2 (L,C,R,l,r) + LFE ch, ~640.00 kbps avg |Original
Cубтитры: Russian (Forced, iTunes), Russian (iTunes), English, English (SDH), English (SDH-COLORED)

Скриншоты

Media Info

Общее
Уникальный идентификатор : 185941775759696702521317683739353060954 (0x8BE31558B507A198AB8E2D00F852965A)
Полное имя : D:\TeenageMutantNinjaTurtles.3D.2014.BDrip.Half.OU.3D-RuGroup\TeenageMutantNinjaTurtles.3D.2014.BDrip.Half.OU.x264.AC3.(itsamna).3D-RuGroup.mkv
Формат : Matroska
Версия формата : Version 4 / Version 2
Размер файла : 8,10 Гбайт
Продолжительность : 1 ч. 41 м.
Общий поток : 11,4 Мбит/сек
Название фильма : Teenage Mutant Ninja Turtles (2014) 3D rip by itsamna aka StarStranger (release 3D-RuGroup)
Дата кодирования : UTC 2014-12-01 07:57:29
Программа кодирования : mkvmerge v6.8.0 ('Theme for Great Cities') 32bit built on Mar 2 2014 21:27:07
Библиотека кодирования : libebml v1.3.0 + libmatroska v1.4.1
Видео
Идентификатор : 1
Формат : AVC
Формат/Информация : Advanced Video Codec
Профиль формата : High@L4.1
Параметр CABAC формата : Да
Параметр ReFrames формата : 4 кадра
Идентификатор кодека : V_MPEG4/ISO/AVC
Продолжительность : 1 ч. 41 м.
Битрейт : 9937 Кбит/сек
Ширина : 1920 пикселей
Высота : 1080 пикселей
Соотношение сторон : 16:9
Режим частоты кадров : Постоянный
Частота кадров : 23,976 кадра/сек
Цветовое пространство : YUV
Субдискретизация насыщенности : 4:2:0
Битовая глубина : 8 бит
Тип развёртки : Прогрессивная
Бит/(Пиксели*Кадры) : 0.200
Размер потока : 7,03 Гбайт (87%)
Библиотека кодирования : x264 core 130 r2273 b3065e6
Настройки программы : cabac=1 / ref=4 / deblock=1:-3:-3 / analyse=0x3:0x133 / me=umh / subme=10 / psy=1 / psy_rd=1.00:0.15 / mixed_ref=1 / me_range=32 / chroma_me=1 / trellis=2 / 8x8dct=1 / cqm=0 / deadzone=21,11 / fast_pskip=0 / chroma_qp_offset=-3 / threads=12 / lookahead_threads=2 / sliced_threads=0 / nr=0 / decimate=1 / interlaced=0 / bluray_compat=0 / constrained_intra=0 / bframes=8 / b_pyramid=2 / b_adapt=2 / b_bias=0 / direct=3 / weightb=1 / open_gop=0 / weightp=2 / keyint=250 / keyint_min=23 / scenecut=40 / intra_refresh=0 / rc_lookahead=60 / rc=crf / mbtree=1 / crf=18.0 / qcomp=0.60 / qpmin=0 / qpmax=69 / qpstep=4 / vbv_maxrate=50000 / vbv_bufsize=62500 / crf_max=0.0 / nal_hrd=none / ip_ratio=1.40 / aq=1:0.90
Default : Да
Forced : Нет
Аудио #1
Идентификатор : 2
Формат : AC-3
Формат/Информация : Audio Coding 3
Расширение режима : CM (complete main)
Параметр Endianness формата : Big
Идентификатор кодека : A_AC3
Продолжительность : 1 ч. 41 м.
Вид битрейта : Постоянный
Битрейт : 640 Кбит/сек
Каналы : 6 каналов
Расположение каналов : Front: L C R, Side: L R, LFE
Частота : 48,0 КГц
Битовая глубина : 16 бит
Метод сжатия : С потерями
Размер потока : 464 Мбайт (6%)
Заголовок : AC3 5.1 @ 640 kbps - DUB, Blu-ray CEE
Язык : Russian
Default : Да
Forced : Нет
Аудио #2
Идентификатор : 3
Формат : AC-3
Формат/Информация : Audio Coding 3
Расширение режима : CM (complete main)
Параметр Endianness формата : Big
Идентификатор кодека : A_AC3
Продолжительность : 1 ч. 41 м.
Вид битрейта : Постоянный
Битрейт : 640 Кбит/сек
Каналы : 6 каналов
Расположение каналов : Front: L C R, Side: L R, LFE
Частота : 48,0 КГц
Битовая глубина : 16 бит
Метод сжатия : С потерями
Размер потока : 464 Мбайт (6%)
Язык : English
Default : Нет
Forced : Нет
Текст #1
Идентификатор : 4
Формат : UTF-8
Идентификатор кодека : S_TEXT/UTF8
Идентификатор кодека/Информация : UTF-8 Plain Text
Заголовок : Forced
Язык : Russian
Default : Да
Forced : Нет
Текст #2
Идентификатор : 5
Формат : UTF-8
Идентификатор кодека : S_TEXT/UTF8
Идентификатор кодека/Информация : UTF-8 Plain Text
Язык : Russian
Default : Нет
Forced : Нет
Текст #3
Идентификатор : 6
Формат : UTF-8
Идентификатор кодека : S_TEXT/UTF8
Идентификатор кодека/Информация : UTF-8 Plain Text
Язык : English
Default : Нет
Forced : Нет
Текст #4
Идентификатор : 7
Формат : UTF-8
Идентификатор кодека : S_TEXT/UTF8
Идентификатор кодека/Информация : UTF-8 Plain Text
Заголовок : SDH
Язык : English
Default : Нет
Forced : Нет
Текст #5
Идентификатор : 8
Формат : UTF-8
Идентификатор кодека : S_TEXT/UTF8
Идентификатор кодека/Информация : UTF-8 Plain Text
Заголовок : SDH-COLORED
Язык : English
Default : Нет
Forced : Нет
Меню
00:00:00.000 : en:Chapter 01
00:02:42.287 : en:Chapter 02
00:06:00.485 : en:Chapter 03
00:11:51.544 : en:Chapter 04
00:16:01.835 : en:Chapter 05
00:22:02.946 : en:Chapter 06
00:28:22.784 : en:Chapter 07
00:34:01.831 : en:Chapter 08
00:38:04.031 : en:Chapter 09
00:42:10.110 : en:Chapter 10
00:48:36.413 : en:Chapter 11
00:55:46.092 : en:Chapter 12
01:00:44.265 : en:Chapter 13
01:07:46.604 : en:Chapter 14
01:15:30.359 : en:Chapter 15
01:24:10.795 : en:Chapter 16
01:30:17.036 : en:Chapter 17
01:34:13.564 : en:Chapter 18
--Релиз группы:

Проверено на встроенном плейере ТВ LG 42LW4500
--01.12.2014. Релиз обновлён - русская дорога заменена на лицензию, добавлен пакет субтитров.
Желающие, скачайте заново торрент-файл.
Благодарности релизеру (20)

Торрент:

Статус:

Размер:

Зарегистрирован   [ 2014-12-01 13:27 ]

проверено

8.1 GB

 
 Мнение о фильме (6)





качество 3D класс, а вот фильм редкостный калл
 

Фильм не стоит потраченного времени.
 

Забавный фильм. Вот только звуковыми спецэффектами, видимо, занимался глухой с рождения человек, знающий как звучит что-либо по комиксам. Было забавно наблюдать как озвучивается падение Шредера с высоты, он типа ртом такой "пф-пф-пф" :) А автомобили там ваще нереальные звуки у них издают.
 

Можно разок посмотреть, сколько смотрел, столько вспоминал молодость, первые мульты... Э-эх было время!
 

Больше обращал внимание на картинку, чем на содержание, поэтому фильм понравился
 

Отличный фильм! Можно сказать, что снят в духе мультфильмов и комиксов из детства многих из нас. Динамичный, эффектный и веселый с отличным 3д! А что некоторые из вас ожидали от него, я не понимаю?!! Не хуже трансформеров! Зачетный фильм! Советую посмотреть всем и не обращать внимания на мнения других! Если вы фанатели в детстве черепашками, то и этот фильм вам понравится, я уверен! Судя по другим "шедеврам" типа "Терминатор: Генезис", у которого положительных отзывов с переизбытком, я уже перестаю обращать внимания на отзывы вообще. А вот он реально РЕДКОСТНЫЙ КАЛЛ, как тут некоторые выражались, и тем не менее народ "схавал".
PS: Я с большим уважением отношусь к Арни, но последнюю часть терминатора даже и он не спас своим присутствием. Абсолютно неожиданное дерьмо и реально потраченное время зря.