Торренты   
 
 


Bолшeбный фyтбoл в 3Д / Меtеgоl 3D (Хуан Хосе Кампанелла) [2013, Мультфильм, Приключения, Семейный, Спорт, BDrip, 1080p]Full OverUnder / Вертикальная стереопара

Рейтинг 3D:
Пока никто не голосовал
Рейтинг фильма:
Пока никто не голосовал
 
Вы должны быть авторизированы,
чтобы ставить оценки


Волшебный футбол / Metegol
Год выпуска: 2013
Страна: Испания, Аргентина, Индия, США (Jorge Estrada Mora Producciones, Plural + Jempsa, AtresMedia Cine, 100 Bares, Catmandu Entertainment, ...)
Жанр: Мультфильм, Приключения, Семейный, Спорт
Продолжительность: 1:46:38
Перевод: Многоголосый закадровый (AlexFilm)
Русские субтитры: нет
Режиссер на русском: Хуан Хосе Кампанелла / Juan José Campanella
Роли озвучивали: Фабиан Джианола, Горацио Фонтова, Лусия Масьель, Давид Масахник, Пабло Раго, Диего Рамос, Мигель Анхель Родригез, Коко Сили...
Описание: История Амадео, застенчивого мальчика с добрым сердцем, и его друзей — отважных футболистов, с помощью которых Амадео должен вернуть себе честь, достоинство и настоящую любовь. Это фильм о дружбе, верности и страсти, действие которого разворачивается на футбольном поле.
Сэмпл: http://sendfile.su/1057630
Качество: BDrip
Контейнер: MKV
Формат 3D: OverUnder / Вертикальная стереопара
Порядок ракурсов: левый ракурс первый
Видео кодек: x264
Аудио кодек: DTS
Видео: AVC / High@L5.0 / 23,976 fps / 1920х1600 / 11,1 Мбит/сек
Аудио: Русский / DTS / 48 KHz / 5.1 ch / 768 Кбит/сек
Релиз группы: ВНИМАНИЕ ! На встроенных ТВ-плеерах работать не будет!!!
ТВ Samsung в названии которого есть надпись Ultra HD , и LG Ultra HD 800 серии воспроизводят полные стереопары встроенными плеерами
Железные плееры на которых воспроизводятся полные стереопары:Popcorn C-200 , Dune HD Smart D1 , Dune HD DUO , Dune HD Smart H1 , Dune HD Smart B1 , Dune HD Max , Dune HD TV-303D , Dune HD Base 3D, Philips HMP7001

MediaInfo

Общее
Уникальный идентификатор : 207168346995619043712491597442817416622 (0x9BDB2C1BE7DA59E4802DAF937D9F5DAE)
Полное имя : E:\закачки\Metegol.Rip by SeRoGa00.mkv
Формат : Matroska
Версия формата : Version 2
Размер файла : 9,04 Гбайт
Продолжительность : 1 ч. 46 м.
Общий поток : 12,1 Мбит/сек
Дата кодирования : UTC 2014-12-05 13:03:34
Программа кодирования : mkvmerge v3.4.0 ('Rapunzel') сборка от May 15 2010 09:38:20
Библиотека кодирования : libebml v0.8.0 + libmatroska v0.9.0
Видео
Идентификатор : 1
Формат : AVC
Формат/Информация : Advanced Video Codec
Профиль формата : High@L5.0
Параметр CABAC формата : Да
Параметр ReFrames формата : 4 кадра
Идентификатор кодека : V_MPEG4/ISO/AVC
Продолжительность : 1 ч. 46 м.
Битрейт : 11,1 Мбит/сек
Ширина : 1920 пикселей
Высота : 1600 пикселей
Соотношение сторон : 1,200
Частота кадров : 23,976 кадра/сек
Цветовое пространство : YUV
Субдискретизация насыщенности : 4:2:0
Битовая глубина : 8 бит
Тип развёртки : Прогрессивная
Бит/(Пиксели*Кадры) : 0.151
Размер потока : 8,30 Гбайт (92%)
Заголовок : Rip by SeRoGa00
Библиотека кодирования : x264 core 142 r2479 dd79a61
Настройки программы : cabac=1 / ref=4 / deblock=1:-3:-3 / analyse=0x3:0x113 / me=umh / subme=9 / psy=1 / psy_rd=1.00:0.15 / mixed_ref=1 / me_range=24 / chroma_me=1 / trellis=2 / 8x8dct=1 / cqm=0 / deadzone=21,11 / fast_pskip=1 / chroma_qp_offset=-3 / threads=9 / lookahead_threads=1 / sliced_threads=0 / nr=0 / decimate=1 / interlaced=0 / bluray_compat=0 / constrained_intra=0 / bframes=8 / b_pyramid=2 / b_adapt=2 / b_bias=0 / direct=3 / weightb=1 / open_gop=0 / weightp=2 / keyint=250 / keyint_min=23 / scenecut=40 / intra_refresh=0 / rc_lookahead=60 / rc=crf / mbtree=1 / crf=18.0 / qcomp=0.60 / qpmin=10 / qpmax=69 / qpstep=4 / vbv_maxrate=30000 / vbv_bufsize=30000 / crf_max=0.0 / nal_hrd=none / filler=0 / ip_ratio=1.40 / aq=1:1.00
Язык : English
Аудио
Идентификатор : 2
Формат : DTS
Формат/Информация : Digital Theater Systems
Идентификатор кодека : A_DTS
Продолжительность : 1 ч. 46 м.
Вид битрейта : Постоянный
Битрейт : 755 Кбит/сек
Каналы : 6 каналов
Расположение каналов : Front: L C R, Side: L R, LFE
Частота : 48,0 КГц
Битовая глубина : 24 бит
Метод сжатия : С потерями
Размер потока : 575 Мбайт (6%)
Язык : Russian

Скриншоты


Благодарности релизеру (3)

Торрент:

Статус:

Размер:

Зарегистрирован   [ 2014-12-06 18:03 ]

проверено

9.04 GB