Торренты   
 
 

 

Заколдованное королевство 3Д в 3Д / Enchanted Kingdom 3D 3D (Патрик Моррис, Нил Н) [2013, Документальный, Видовой, BDrip, 1080p]Full OverUnder / Вертикальная стереопара

Рейтинг 3D:
4 голосов
7.5
Рейтинг фильма:
4 голосов
8.5
 
Вы должны быть авторизированы,
чтобы ставить оценки


Заколдованное королевство 3Д / Enchanted Kingdom 3D
Год выпуска: 2013
Страна: Великобритания (Reliance Entertainment, IM Global, BBC Earth Films, Evergreen Studios)
Жанр: Документальный, Видовой
Продолжительность: 1:27:19
Перевод: Профессиональный одноголосый закадровый (Омикрон , Д. Есарев)
Русские субтитры: нет
Режиссер: Патрик Моррис, Нил Найтингейл / Patrick Morris, Neil Nightingale
В ролях: Хейли Джоэнн Бэйкон, India Dale-Hill
Описание: Документальный фильм о дикой природе Африки, снятый за 500 дней с применением новейших инновационных 3D технологий, является, самым амбициозным и зрелищным проектом о живой природе известнейшего мирового производителя фильмов об истории Земли - компании BBC.
Сэмпл: http://sendfile.su/1072178
Качество: BDrip
Контейнер: MKV
Формат 3D: OverUnder / Вертикальная стереопара
Порядок ракурсов: левый ракурс первый
Видео кодек: x264
Аудио кодек: AC3
Видео: AVC / High@L5.0 / 23,976 fps / 1920х2080 / 24,1 Мбит/сек
Аудио: Русский / AC3 / 48 KHz / 5.1 ch / 640 Кбит/сек(VO - Омикрон)
Аудио 2: Русский / AC3 / 48 KHz / 5.1 ch / 640 Кбит/сек(VO - Д. Есарев)
Аудио 3: Английский / AC3 / 48 KHz / 5.1 ch / 640 Кбит/сек
Релиз группы: ВНИМАНИЕ ! На встроенных ТВ-плеерах работать не будет!!!
ТВ Samsung в названии которого есть надпись Ultra HD , и LG Ultra HD 800 серии воспроизводят полные стереопары встроенными плеерами
Железные плееры на которых воспроизводятся полные стереопары:Popcorn C-200 , Dune HD Smart D1 , Dune HD DUO , Dune HD Smart H1 , Dune HD Smart B1 , Dune HD Max , Dune HD TV-303D , Dune HD Base 3D, Philips HMP7001

MediaInfo

Общее
Уникальный идентификатор : 197692659917196579469962992280151153695 (0x94BA38AA86780C48A43C2A7DA5EE5C1F)
Полное имя : E:\закачки\Enchanted Kingdom.Rip by SeRoGa00.mkv
Формат : Matroska
Версия формата : Version 2
Размер файла : 16,2 Гбайт
Продолжительность : 1 ч. 27 м.
Общий поток : 26,5 Мбит/сек
Дата кодирования : UTC 2015-01-11 10:20:38
Программа кодирования : mkvmerge v3.4.0 ('Rapunzel') сборка от May 15 2010 09:38:20
Библиотека кодирования : libebml v0.8.0 + libmatroska v0.9.0
Видео
Идентификатор : 1
Формат : AVC
Формат/Информация : Advanced Video Codec
Профиль формата : High@L5.0
Параметр CABAC формата : Да
Параметр ReFrames формата : 4 кадра
Идентификатор кодека : V_MPEG4/ISO/AVC
Продолжительность : 1 ч. 27 м.
Битрейт : 24,1 Мбит/сек
Ширина : 1920 пикселей
Высота : 2080 пикселей
Соотношение сторон : 0,923
Частота кадров : 23,976 кадра/сек
Цветовое пространство : YUV
Субдискретизация насыщенности : 4:2:0
Битовая глубина : 8 бит
Тип развёртки : Прогрессивная
Бит/(Пиксели*Кадры) : 0.251
Размер потока : 14,7 Гбайт (91%)
Заголовок : Rip by SeRoGa00
Библиотека кодирования : x264 core 142 r2479 dd79a61
Настройки программы : cabac=1 / ref=4 / deblock=1:-3:-3 / analyse=0x3:0x113 / me=umh / subme=9 / psy=1 / psy_rd=1.00:0.15 / mixed_ref=1 / me_range=24 / chroma_me=1 / trellis=2 / 8x8dct=1 / cqm=0 / deadzone=21,11 / fast_pskip=1 / chroma_qp_offset=-3 / threads=9 / lookahead_threads=1 / sliced_threads=0 / nr=0 / decimate=1 / interlaced=0 / bluray_compat=0 / constrained_intra=0 / bframes=8 / b_pyramid=2 / b_adapt=2 / b_bias=0 / direct=3 / weightb=1 / open_gop=0 / weightp=2 / keyint=250 / keyint_min=23 / scenecut=40 / intra_refresh=0 / rc_lookahead=60 / rc=crf / mbtree=1 / crf=18.0 / qcomp=0.60 / qpmin=10 / qpmax=69 / qpstep=4 / vbv_maxrate=30000 / vbv_bufsize=30000 / crf_max=0.0 / nal_hrd=none / filler=0 / ip_ratio=1.40 / aq=1:1.00
Язык : English
Аудио #1
Идентификатор : 2
Формат : AC-3
Формат/Информация : Audio Coding 3
Расширение режима : CM (complete main)
Идентификатор кодека : A_AC3
Продолжительность : 1 ч. 27 м.
Вид битрейта : Постоянный
Битрейт : 640 Кбит/сек
Каналы : 6 каналов
Расположение каналов : Front: L C R, Side: L R, LFE
Частота : 48,0 КГц
Битовая глубина : 16 бит
Метод сжатия : С потерями
Размер потока : 400 Мбайт (2%)
Заголовок : VO - Омикрон
Язык : Russian
Аудио #2
Идентификатор : 3
Формат : AC-3
Формат/Информация : Audio Coding 3
Расширение режима : CM (complete main)
Идентификатор кодека : A_AC3
Продолжительность : 1 ч. 27 м.
Вид битрейта : Постоянный
Битрейт : 640 Кбит/сек
Каналы : 6 каналов
Расположение каналов : Front: L C R, Side: L R, LFE
Частота : 48,0 КГц
Битовая глубина : 16 бит
Метод сжатия : С потерями
Размер потока : 400 Мбайт (2%)
Заголовок : VO - Д. Есарев
Язык : Russian
Аудио #3
Идентификатор : 4
Формат : AC-3
Формат/Информация : Audio Coding 3
Расширение режима : CM (complete main)
Идентификатор кодека : A_AC3
Продолжительность : 1 ч. 27 м.
Вид битрейта : Постоянный
Битрейт : 640 Кбит/сек
Каналы : 6 каналов
Расположение каналов : Front: L C R, Side: L R, LFE
Частота : 48,0 КГц
Битовая глубина : 16 бит
Метод сжатия : С потерями
Размер потока : 400 Мбайт (2%)
Язык : English

Скриншоты


Благодарности релизеру (2)

Торрент:

Статус:

Размер:

Зарегистрирован   [ 2015-01-11 15:28 ]

* не проверено

16.17 GB

 
 Мнение о фильме (1)





Спасибо, конечно, за труд, НО- почему бы не выложить такой формат, что бы посмотрели все ЖЕЛАЮЩИЕ))))