Торренты   
 
 


Kнuга жuзни в 3Д / The Вoоk of Lіfе 3D (Хорхе Р. Гутьеррес /) [2014, Мультфильм, Фэнтези, Мелодрама, Комедия, Приключен, BDrip, 1080p]Full OverUnder / Вертикальная стереопара

Рейтинг 3D:
6 голосов
5.9
Рейтинг фильма:
6 голосов
6.7
 
Вы должны быть авторизированы,
чтобы ставить оценки


Книга жизни / The Book of Life
Год выпуска: 2014
Страна: США (20th Century Fox, Reel FX Animation Studios)
Жанр: Мультфильм, Фэнтези, Мелодрама, Комедия, Приключен
Продолжительность: 1:35:25
Перевод: Профессиональный дублированный (Лицензия)
Русские субтитры: нет
Режиссер: Хорхе Р. Гутьеррес / Jorge R. Gutierrez
В ролях: Диего Луна, Зои Салдана, Ченнинг Татум, Рон Перлман, Кристина Эпплгейт, Айс Кьюб, Кейт дель Кастильо, Гектор Элизондо, Дэнни Трехо, Карлос Аласраки
Описание: В мультфильме описывается романтическая история любви на фоне празднования Дня мертвых в Мексике.
Сэмпл: http://sendfile.su/1109507
Качество: BDrip
Контейнер: MKV
Формат 3D: OverUnder / Вертикальная стереопара
Порядок ракурсов: левый ракурс первый
Видео кодек: x264
Аудио кодек: AC3
Видео: AVC / High@L5.0 / 23,976 fps / 1920х1600 / 14,4 Мбит/сек
Аудио: Русский / DTS / 48 KHz / 5.1 ch / 768 Кбит/сек (Лицензия)
Аудио 2: Английский / AC3 / 48 KHz / 5.1 ch / 640 Кбит/сек
Релиз группы: ВНИМАНИЕ ! На встроенных ТВ-плеерах работать не будет!!!
ТВ Samsung в названии которого есть надпись Ultra HD , и LG Ultra HD 800 серии,Xiaomi Mi TV 2 воспроизводят полные стереопары встроенными плеерами
Железные плееры на которых воспроизводятся полные стереопары:Popcorn C-200 , Dune HD Smart D1 , Dune HD DUO , Dune HD Smart H1 , Dune HD Smart B1 , Dune HD Max , Dune HD TV-303D , Dune HD Base 3D, Philips HMP7001
19.04.2015. Релиз обновлён - русская звуковая дорога (Любительский многоголосый закадровый) заменена на лицензию.
Желающие, скачайте заново торрент-файл.

MediaInfo

Общее
Уникальный идентификатор : 214806177741488973962721131292156782466 (0xA19A2A3D1F9B63678187EE59C5546782)
Полное имя : E:\закачки\The Book of Life.Rip by SeRoGa00.mkv
Формат : Matroska
Версия формата : Version 2
Размер файла : 10,7 Гбайт
Продолжительность : 1 ч. 35 м.
Общий поток : 16,1 Мбит/сек
Дата кодирования : UTC 2015-04-19 07:18:37
Программа кодирования : mkvmerge v3.4.0 ('Rapunzel') сборка от May 15 2010 09:38:20
Библиотека кодирования : libebml v0.8.0 + libmatroska v0.9.0
Видео
Идентификатор : 1
Формат : AVC
Формат/Информация : Advanced Video Codec
Профиль формата : High@L5.0
Параметр CABAC формата : Да
Параметр ReFrames формата : 4 кадра
Идентификатор кодека : V_MPEG4/ISO/AVC
Продолжительность : 1 ч. 35 м.
Битрейт : 14,4 Мбит/сек
Ширина : 1920 пикселей
Высота : 1600 пикселей
Соотношение сторон : 1,200
Частота кадров : 23,976 кадра/сек
Цветовое пространство : YUV
Субдискретизация насыщенности : 4:2:0
Битовая глубина : 8 бит
Тип развёртки : Прогрессивная
Бит/(Пиксели*Кадры) : 0.195
Размер потока : 9,58 Гбайт (89%)
Заголовок : Rip by SeRoGa00
Библиотека кодирования : x264 core 142 r2479 dd79a61
Настройки программы : cabac=1 / ref=4 / deblock=1:-3:-3 / analyse=0x3:0x113 / me=umh / subme=9 / psy=1 / psy_rd=1.00:0.15 / mixed_ref=1 / me_range=24 / chroma_me=1 / trellis=2 / 8x8dct=1 / cqm=0 / deadzone=21,11 / fast_pskip=1 / chroma_qp_offset=-3 / threads=9 / lookahead_threads=1 / sliced_threads=0 / nr=0 / decimate=1 / interlaced=0 / bluray_compat=0 / constrained_intra=0 / bframes=8 / b_pyramid=2 / b_adapt=2 / b_bias=0 / direct=3 / weightb=1 / open_gop=0 / weightp=2 / keyint=250 / keyint_min=23 / scenecut=40 / intra_refresh=0 / rc_lookahead=60 / rc=crf / mbtree=1 / crf=18.0 / qcomp=0.60 / qpmin=10 / qpmax=69 / qpstep=4 / vbv_maxrate=30000 / vbv_bufsize=30000 / crf_max=0.0 / nal_hrd=none / filler=0 / ip_ratio=1.40 / aq=1:1.00
Язык : English
Default : Нет
Forced : Нет
Аудио #1
Идентификатор : 2
Формат : DTS
Формат/Информация : Digital Theater Systems
Идентификатор кодека : A_DTS
Продолжительность : 1 ч. 35 м.
Вид битрейта : Постоянный
Битрейт : 768 Кбит/сек
Каналы : 6 каналов
Расположение каналов : Front: L C R, Side: L R, LFE
Частота : 48,0 КГц
Битовая глубина : 24 бит
Метод сжатия : С потерями
Размер потока : 515 Мбайт (5%)
Язык : Russian
Default : Да
Forced : Нет
Аудио #2
Идентификатор : 3
Формат : AC-3
Формат/Информация : Audio Coding 3
Расширение режима : CM (complete main)
Параметр Endianness формата : Big
Идентификатор кодека : A_AC3
Продолжительность : 1 ч. 35 м.
Вид битрейта : Постоянный
Битрейт : 640 Кбит/сек
Каналы : 6 каналов
Расположение каналов : Front: L C R, Side: L R, LFE
Частота : 48,0 КГц
Битовая глубина : 16 бит
Метод сжатия : С потерями
Размер потока : 437 Мбайт (4%)
Язык : English
Default : Нет
Forced : Нет

Скриншоты


Благодарности релизеру (4)

Торрент:

Статус:

Размер:

Зарегистрирован   [ 2015-04-19 12:52 ]

проверено

10.72 GB

 
 Мнение о фильме (4)





Золотой глобус-2015 - номинация в категории "Лучший анимационный фильм".

Рецензия с Кинопоиска

Многие из проектов, к которым прикоснулся Гильермо дель Торо хотя бы в качестве продюсера, застревают в памяти как минимум темновато-угрюмыми впечатлениями, осязательно объемными ассоциациями, отложившимися не только в приторно-кислотный осадок после просмотра, но в так и крутящиеся в голове образы, замечательные своей странной, причудливой красотой. Это может быть мальчик в мешковине, зловещая Химера, выросшая из пробирочных опытов, или кровожадный павлин, уничтоживший тысячи милых зверушек в детском мультике.
Вот и «Книга жизни» несет на себе эту печать мастера, даром что он лишь продюсер. А что известно о режиссере Хорхе Гутьерресе? Дебютировал в большом кино, никому неизвестен. Создается обманчивое впечатление, что любой человек с хорошо прописанным сценарием и бюджетом в 50 миллионов ихних долларов может состряпать такой вот ужасно приятный анимационный фильм длительностью в полтора часа, интересный и детям, и взрослым. Хотя конечно же это не так! Такой совершенный в своем стройном великолепии мир может родиться лишь в душе вдохновенного художника, которого поддержат другие талантливые художники. Ну, а если среди них окажется Гильермо дель Торо — повезло тебе, счастливчик!
Итак, центром мира живых людей объявлен Мехико, а в центре Мехико находится красивое озеро, и в его центре есть маленькая деревушка Сан Анхель, где живут маленькие Мануэль, Хоаким и Мария — мальчики любят девочку, а она пока лишь питает к ним дружеские симпатии и ждет, пока кто-либо из них не завоюет ее сердце по-взрослому. Но есть еще два мира — Страна Забытых и Страна Тех, О Ком Помнят. Темный ангел из страны несчастных забвенных душ заключил пари с радушной хозяйкой потустороннего счастливого края мертвых, которых помнят и любят их родные: Если Хоакин женится на Марии, то быть Темному ангелу властителем Светлого мира, и тогда вселенная погрузится в печаль, и ее засыпет серым рыхлым пеплом.
Этот вроде совсем невеселый зачин раскручивает бодро скачущий по рисованным ухабам сюжет, в котором есть место всему: и модным остроумным гэгам в полтора-два кадра, вставленным тут и там, и тщательно проработанным характерам, которых буквально лепят всю первую половину фильма, и безумству ослепительных красок, с кислотностью которых может соперничать лишь «Спиди-Гонщик» Вачовски, и мелодичными песнями в духе Диснеевских мульт-опер, и любви, и душевности, и семейным ценностям по-латиноамерикански. Стилистика этого фильма уникальна в своем роде, как, скажем, уникальна была стилистика «Коралины» Селика, или «Франкенвини» Бёртона, или «Бесподобного мистера Фокса» Уэса Андерсона. Только тут ставку сделали на кукольности персонажей, вырезанных из нарисованных на компьютере деревяшек, да так искусно, что кажутся настоящими, хранящими в себе энергетику дерева не марионетками, нет! Компаньонами детских игр, — милыми сердцу, любимыми игрушками. В удивительно оформленных декорациях всех трех миров путешествуют, преодолевают препятствия герои этой настоящей волшебной сказки.
И все тут в абсолютно превосходной степени. Краски — так чтоб вырви глаз от цветовой насыщенности. Музыка — так чтобы вышибала слезу. Экшен — так чтобы все неслось, грохотало и кувыркалось по-хеллбоевски (теперь становится понятно, откуда растут ноги сумасшедших мельтешащих кульбитов в массовых сценах с гномами в обоих «Хоббитах»). Если бык — так это БЫК, огромное, размером с Колизей, необьятное, изрыгающее пламя чудовище. Если любовь — то до гроба. Если семья — то всегда с тобой, хоть в этом мире, хоть в том.
Именно в этом и заключается главный месседж семейного кино в общем и «Книги жизни» в частности. Каждый выходит с такого просмотра немного другим человеком. Немного добрее, немного чувствительнее. Погасли струйки традиционного для жанра салюта, слово «КОНЕЦ» замелькало на экране, и вот уже пора выходить из кинотеатра, приглаживая наэлектризованные волосы, и становится немного грустно… Потому что волшебство закончилось, и магия тонет в песне финальных титров. Книга жизни закрыта, а ее история, — да даже если только главный посыл, — пусть останется жить в сердцах маленьких зрителей, ради которых ты и пришел сегодня в этот зал.
 

перевод вполне себе) слышно оригинальный голос немного, но быстро привыкаешь. мультфильм очень порадовал) хороший добрый мульт. советую!
спасибо за раздачу!
 

Мульт супер, немного на "Труп Невесты" Тим Бертона похож, Я смотрел в кинотеатре, буду с удовольствием смотреть и дома в 3Д. Спасибо за раздачу.
 

смотрю через HMS. изображение сжатое на телике. не на весь экран. черные полосы по бокам. никак не могу сделать на полный экран(( в чем проблема?
в любом случае спасибо за раздачу!