Торренты   
 
 

 

IMAX. Приключение в Большом каньоне - Река в опасности 3D / Grand Canyon Adventure - River at Risk 3D [2008 г, BDRip 1080p, Anamorph OverUnder]

Рейтинг 3D:
44 голосов
8.5
Рейтинг фильма:
43 голосов
8.0
 
Вы должны быть авторизированы,
чтобы ставить оценки


Приключение в Большом каньоне: Река в опасностиGrand Canyon Adventure: River at Risk
Год выпуска: 2008
Страна: США (IMAX, Teva, MacGillivray Freeman Films)
Жанр: Документальный, Приключения
Продолжительность: 00:44:35
Перевод: Профессиональный (одноголосый закадровый)
Режиссер: Грег МакГилливрэй / Greg MacGillivray
В ролях: Уэйд Дэвис, Никки Келли, Шена Ватахомиге
Рассказчик: Роберт Редфорд
Описание: Мощный фильм от создателей «Эверест», рассказывающий об угрозе, нависшей над одним из главных пейзажных символов Америки.
Вы увидите великую реку Колорадо, которая напомнит нам о самой гнетущей современной проблеме окружающей среды – нарастающая нехватка пресной воды во всем мире. Присоединитесь к адвокатам, занимающимся защитой окружающей среды, - Роберту Ф. Кеннеди Мл. и Уэйду Дэвису и их дочерям, путешествующим в глубину Большого Каньона вниз по течению реки, протекающей сквозь него. У вас участиться пульса, когда вы увидите захватывающую поездку по реке через стремительные пороги и поразительные каньоны. С помощью сногсшибательных фотографий и съемок с воздуха новоявленные кинематографисты попытаются захватить всю красоту реки Колорадо и Большого Каньона.
Комментирует фильм – обладатель Оскара, актер, кинематографист и убежденный борец за сохранение окружающей среды Роберт Редфорд. Песни и музыку исполняет обладатель премии Гремми оркестр Дэйва Мэттьюса. Этот фильм заставит вас проявлять больше уважения к реками и воде и попытается донести осознание того, что и обычные люди могут изменить нашу высыхающую планету к лучшему.--Проверено на встроенном плейере ТВ Samsung UE-C7000 --Формат 3d: Anamorph OverUnder
Качество: BDrip
Контейнер: MKV
Видео: AVC / 1920х1080p / 23,976 fps / 14.3 Mbps
Аудио#1: Русский / AC3 / 5.1 ch / 48 KHz / 640 Kbps
Аудио#2: Английский / AC3 / 5.1 ch / 48 KHz / 640 kbps

MediaInfo

General
Unique ID : 198896270418330911403462361142696531628 (0x95A2073ED62B99EDB36FC72A0C2AD6AC)
Complete name : F:\Downloads\GrandCanyonAdventure3D.halfOU.AC3.ash61.mkv
Format : Matroska
File size : 4.94 GiB
Duration : 44mn 36s
Overall bit rate : 15.8 Mbps
Encoded date : UTC 2011-07-22 11:03:56
Writing application : mkvmerge v3.4.0 ('Rapunzel') сборка от May 15 2010 09:38:20
Writing library : libebml v0.8.0 + libmatroska v0.9.0
Video
ID : 1
Format : AVC
Format/Info : Advanced Video Codec
Format profile : High@L4.1
Format settings, CABAC : Yes
Format settings, ReFrames : 4 frames
Codec ID : V_MPEG4/ISO/AVC
Duration : 44mn 36s
Bit rate : 14.3 Mbps
Width : 1 920 pixels
Height : 1 080 pixels
Display aspect ratio : 16:9
Frame rate : 23.976 fps
Color space : YUV
Chroma subsampling : 4:2:0
Bit depth : 8 bits
Scan type : Progressive
Bits/(Pixel*Frame) : 0.287
Stream size : 4.44 GiB (90%)
Title : Rip by ash61
Writing library : x264 core 113 r1884 7313bb5
Encoding settings : cabac=1 / ref=4 / deblock=1:-3:-3 / analyse=0x3:0x113 / me=umh / subme=9 / psy=1 / psy_rd=1.00:0.15 / mixed_ref=1 / me_range=16 / chroma_me=1 / trellis=2 / 8x8dct=1 / cqm=0 / deadzone=21,11 / fast_pskip=1 / chroma_qp_offset=-3 / threads=3 / sliced_threads=0 / nr=0 / decimate=1 / interlaced=0 / constrained_intra=0 / bframes=6 / b_pyramid=2 / b_adapt=2 / b_bias=0 / direct=3 / weightb=1 / open_gop=0 / weightp=2 / keyint=250 / keyint_min=23 / scenecut=40 / intra_refresh=0 / rc_lookahead=60 / rc=crf / mbtree=1 / crf=18.0 / qcomp=0.70 / qpmin=1 / qpmax=51 / qpstep=4 / ip_ratio=1.40 / aq=1:1.00
Audio #1
ID : 2
Format : AC-3
Format/Info : Audio Coding 3
Mode extension : CM (complete main)
Codec ID : A_AC3
Duration : 44mn 36s
Bit rate mode : Constant
Bit rate : 640 Kbps
Channel(s) : 6 channels
Channel positions : Front: L C R, Side: L R, LFE
Sampling rate : 48.0 KHz
Bit depth : 16 bits
Compression mode : Lossy
Stream size : 204 MiB (4%)
Title : AVO
Language : Russian
Audio #2
ID : 3
Format : AC-3
Format/Info : Audio Coding 3
Mode extension : CM (complete main)
Codec ID : A_AC3
Duration : 44mn 36s
Bit rate mode : Constant
Bit rate : 640 Kbps
Channel(s) : 6 channels
Channel positions : Front: L C R, Side: L R, LFE
Sampling rate : 48.0 KHz
Bit depth : 16 bits
Compression mode : Lossy
Stream size : 204 MiB (4%)
Language : English
Господа копипастеры, пожалуйста, уважайте труд рипперов -
не "забывайте" указывать авторство в своих релизах!
--7.03.2012 - Релиз обновлён. Видео заменено на более качественное и теперь подходит ко всем ТВ-плейерам. Желающие, скачайте заново торрент-файл.
Остальные раздачи этого фильма (5)
Благодарности релизеру (56)

Торрент:

Статус:

Размер:

Зарегистрирован   [ 2012-03-07 01:28 ]

проверено

4.94 GB