Торренты   
 
 


Bызoв бeзднe в 3Д / Deерsea Сhаllеnge 3D (Джон Бруно, Рэй Кен, Эндрю Уайт) [2014, Документальный, BDrip, 1080p]Full OverUnder / Вертикальная стереопара

Рейтинг 3D:
Пока никто не голосовал
Рейтинг фильма:
Пока никто не голосовал
 
Вы должны быть авторизированы,
чтобы ставить оценки


Вызов бездне / Deepsea Challenge
Год выпуска: 2014
Страна: США (National Geographic Entertainment, Disruptive LA, Earthship Productions, A Wight Expedition Film, Beyond Productions)
Жанр: Документальный
Продолжительность: 1:31:05
Перевод: Профессиональный (многоголосый закадровый)
Русские субтитры: нет
Режиссер : Джон Бруно, Рэй Кен, Эндрю Уайт / John Bruno, Ray Quint, Andrew Wight
Продюсеры: Джеймс Кэмерон, Бретт Попплуэлл
В ролях: Джеймс Кэмерон, Френк Лолито (Giuseppe Buono), Лачлан Вудс (Jacques Piccard), Пол Генри (Don Walsh)
Описание: На Земле есть несколько мест, которых не коснулась история развития человечества. В полной темноте и безмолвии они хранят величайшие тайны Земли. Недоступные, как далекие планеты, они полны научных открытий. Одно из таких мест — Марианская впадина.
Джеймс Кэмерон — самый известный и успешный режиссер в мире, еще и страстный исследователь океанов, ведомый мечтой всей его жизни, быть первым человеком, ныряющим в одиночку на дно неприступной и самой глубокой из всех известных на Земле Марианской впадины.
Вызов бездне — захватывающая история, разворачивающаяся перед нами в 3D, об экспедиции исторического масштаба, которую можно сравнить разве что с первыми человеческими шагами по Луне. Вызов бездне загипнотизирует зрителя любого возраста красотой новых форм жизни, трепетом от настоящих открытий. А самое главное, что все это здесь, на их родной планете.
Сэмпл: http://sendfile.su/1090033
Качество: BDrip
Контейнер: MKV
Формат 3D: OverUnder / Вертикальная стереопара
Порядок ракурсов: левый ракурс первый
Видео кодек: x264
Аудио кодек: AC3
Видео: AVC / High@L5.0 / 23,976 fps / 1920х2160 / 22,7 Мбит/сек
Аудио: Русский / AC3 / 48 KHz / 5.1 ch / 448 Кбит/сек
Аудио 2: Английский / AC3 / 48 KHz / 5.1 ch / 448 Кбит/сек
Релиз группы: ВНИМАНИЕ ! На встроенных ТВ-плеерах работать не будет!!!
ТВ Samsung в названии которого есть надпись Ultra HD , и LG Ultra HD 800 серии воспроизводят полные стереопары встроенными плеерами
Железные плееры на которых воспроизводятся полные стереопары:Popcorn C-200 , Dune HD Smart D1 , Dune HD DUO , Dune HD Smart H1 , Dune HD Smart B1 , Dune HD Max , Dune HD TV-303D , Dune HD Base 3D, Philips HMP7001

MediaInfo

Общее
Уникальный идентификатор : 202997394029383468489550179083640990528 (0x98B7E0402F35BD82863DA55E8CC96B40)
Полное имя : E:\закачки\Deepsea Challenge.Rip by SeRoGa00.mkv
Формат : Matroska
Версия формата : Version 2
Размер файла : 15,3 Гбайт
Продолжительность : 1 ч. 31 м.
Общий поток : 24,1 Мбит/сек
Дата кодирования : UTC 2015-02-25 19:43:29
Программа кодирования : mkvmerge v3.4.0 ('Rapunzel') сборка от May 15 2010 09:38:20
Библиотека кодирования : libebml v0.8.0 + libmatroska v0.9.0
Видео
Идентификатор : 1
Формат : AVC
Формат/Информация : Advanced Video Codec
Профиль формата : High@L5.0
Параметр CABAC формата : Да
Параметр ReFrames формата : 4 кадра
Идентификатор кодека : V_MPEG4/ISO/AVC
Продолжительность : 1 ч. 31 м.
Битрейт : 22,7 Мбит/сек
Ширина : 1920 пикселей
Высота : 2160 пикселей
Соотношение сторон : 0,889
Частота кадров : 23,976 кадра/сек
Цветовое пространство : YUV
Субдискретизация насыщенности : 4:2:0
Битовая глубина : 8 бит
Тип развёртки : Прогрессивная
Бит/(Пиксели*Кадры) : 0.228
Размер потока : 14,4 Гбайт (94%)
Заголовок : Rip by SeRoGa00
Библиотека кодирования : x264 core 144 r2525 40bb568
Настройки программы : cabac=1 / ref=4 / deblock=1:-3:-3 / analyse=0x3:0x113 / me=umh / subme=9 / psy=1 / psy_rd=1.00:0.15 / mixed_ref=1 / me_range=24 / chroma_me=1 / trellis=2 / 8x8dct=1 / cqm=0 / deadzone=21,11 / fast_pskip=1 / chroma_qp_offset=-3 / threads=9 / lookahead_threads=1 / sliced_threads=0 / nr=0 / decimate=1 / interlaced=0 / bluray_compat=0 / constrained_intra=0 / bframes=8 / b_pyramid=2 / b_adapt=2 / b_bias=0 / direct=3 / weightb=1 / open_gop=0 / weightp=2 / keyint=250 / keyint_min=23 / scenecut=40 / intra_refresh=0 / rc_lookahead=60 / rc=crf / mbtree=1 / crf=18.0 / qcomp=0.60 / qpmin=10 / qpmax=69 / qpstep=4 / vbv_maxrate=30000 / vbv_bufsize=30000 / crf_max=0.0 / nal_hrd=none / filler=0 / ip_ratio=1.40 / aq=1:1.00
Язык : English
Default : Нет
Forced : Нет
Аудио #1
Идентификатор : 2
Формат : AC-3
Формат/Информация : Audio Coding 3
Расширение режима : CM (complete main)
Параметр Endianness формата : Big
Идентификатор кодека : A_AC3
Продолжительность : 1 ч. 31 м.
Вид битрейта : Постоянный
Битрейт : 448 Кбит/сек
Каналы : 6 каналов
Расположение каналов : Front: L C R, Side: L R, LFE
Частота : 48,0 КГц
Битовая глубина : 16 бит
Метод сжатия : С потерями
Размер потока : 292 Мбайт (2%)
Язык : Russian
Default : Да
Forced : Нет
Аудио #2
Идентификатор : 3
Формат : AC-3
Формат/Информация : Audio Coding 3
Расширение режима : CM (complete main)
Параметр Endianness формата : Big
Идентификатор кодека : A_AC3
Продолжительность : 1 ч. 31 м.
Вид битрейта : Постоянный
Битрейт : 448 Кбит/сек
Каналы : 6 каналов
Расположение каналов : Front: L C R, Side: L R, LFE
Частота : 48,0 КГц
Битовая глубина : 16 бит
Метод сжатия : С потерями
Размер потока : 292 Мбайт (2%)
Язык : English
Default : Нет
Forced : Нет

Скриншоты


Благодарности релизеру (3)

Торрент:

Статус:

Размер:

Зарегистрирован   [ 2015-02-26 14:30 ]

проверено

15.32 GB