Торренты   
 
 

 

Пuнгвuны Mадaгаскаpa в 3Д / Рenguіns of Мadаgasсar 3D (Эрик Дарнелл, Саймон Дж. Смит) [2014, Мультфильм, Комедия, Приключения, Семейный, BDrip, 1080p]Full OverUnder / Вертикальная стереопара

Рейтинг 3D:
13 голосов
7.3
Рейтинг фильма:
14 голосов
6.9
 
Вы должны быть авторизированы,
чтобы ставить оценки


Пингвины Мадагаскарa / Penguins of Madаgascar
Год выпуска: 2014
Страна: США(DreamWorks Animation, Pacific Data Images (PDI))
Жанр: Мультфильм, Комедия, Приключения, Семейный
Продолжительность: 1:31:47
Перевод: Профессиональный (дублированный)
Русские субтитры: нет
Режиссер: Эрик Дарнелл, Саймон Дж. Смит/Eric Darnell, Simon J. Smith
В ролях: Том МакГрат, Крис Миллер, Кристофер Найтс, Бенедикт Камбербэтч, Петер Стормаре, Джон Малкович, Кен Жонг, Аннет Махендру
Роли озвучивали: Анатолий Дубанов, Андрей Шамин, Иван Паршин, Вадим Романов, Максим Матвеев
Описание: Четвёрка пингвинов-шпионов — Шкипер, Ковальски, Рико и Прапор — объединяется с командой «Северный ветер», помогающей беззащитным животным. Им предстоит остановить злобного осьминога, доктора Октавиуса Брайна, желающего уничтожить этот мир…
Сэмпл: http://sendfile.su/1091953
Качество: BDrip
Контейнер: MKV
Формат 3D: OverUnder / Вертикальная стереопара
Порядок ракурсов: левый ракурс первый
Видео кодек: x264
Аудио кодек: AC3
Видео: AVC / High@L5.0 / 23,976 fps / 1920х2160 / 15,9 Мбит/сек
Аудио: Русский / DTS / 48 KHz / 5.1 ch / 768 Кбит/сек
Аудио 2: Английский / AC3 / 48 KHz / 5.1 ch / 640 Кбит/сек
Релиз группы: ВНИМАНИЕ ! На встроенных ТВ-плеерах работать не будет!!!
ТВ Samsung в названии которого есть надпись Ultra HD , и LG Ultra HD 800 серии воспроизводят полные стереопары встроенными плеерами
Железные плееры на которых воспроизводятся полные стереопары:Popcorn C-200 , Dune HD Smart D1 , Dune HD DUO , Dune HD Smart H1 , Dune HD Smart B1 , Dune HD Max , Dune HD TV-303D , Dune HD Base 3D, Philips HMP7001

MediaInfo

Общее
Уникальный идентификатор : 188305946804119214705828257470594253818 (0x8DAA67FA78692D12B7DE6BF9087983FA)
Полное имя : E:\закачки\Penguins of Madagascar.Rip by SeRoGa00.mkv
Формат : Matroska
Версия формата : Version 2
Размер файла : 11,3 Гбайт
Продолжительность : 1 ч. 31 м.
Общий поток : 17,7 Мбит/сек
Дата кодирования : UTC 2015-03-03 10:55:09
Программа кодирования : mkvmerge v3.4.0 ('Rapunzel') сборка от May 15 2010 09:38:20
Библиотека кодирования : libebml v0.8.0 + libmatroska v0.9.0
Видео
Идентификатор : 1
Формат : AVC
Формат/Информация : Advanced Video Codec
Профиль формата : High@L5.0
Параметр CABAC формата : Да
Параметр ReFrames формата : 4 кадра
Идентификатор кодека : V_MPEG4/ISO/AVC
Продолжительность : 1 ч. 31 м.
Битрейт : 15,9 Мбит/сек
Ширина : 1920 пикселей
Высота : 2160 пикселей
Соотношение сторон : 0,889
Частота кадров : 23,976 кадра/сек
Цветовое пространство : YUV
Субдискретизация насыщенности : 4:2:0
Битовая глубина : 8 бит
Тип развёртки : Прогрессивная
Бит/(Пиксели*Кадры) : 0.160
Размер потока : 10,2 Гбайт (90%)
Заголовок : Rip by SeRoGa00
Библиотека кодирования : x264 core 144 r2525 40bb568
Настройки программы : cabac=1 / ref=4 / deblock=1:-3:-3 / analyse=0x3:0x113 / me=umh / subme=9 / psy=1 / psy_rd=1.00:0.15 / mixed_ref=1 / me_range=24 / chroma_me=1 / trellis=2 / 8x8dct=1 / cqm=0 / deadzone=21,11 / fast_pskip=1 / chroma_qp_offset=-3 / threads=9 / lookahead_threads=1 / sliced_threads=0 / nr=0 / decimate=1 / interlaced=0 / bluray_compat=0 / constrained_intra=0 / bframes=8 / b_pyramid=2 / b_adapt=2 / b_bias=0 / direct=3 / weightb=1 / open_gop=0 / weightp=2 / keyint=250 / keyint_min=23 / scenecut=40 / intra_refresh=0 / rc_lookahead=60 / rc=crf / mbtree=1 / crf=18.0 / qcomp=0.60 / qpmin=10 / qpmax=69 / qpstep=4 / vbv_maxrate=30000 / vbv_bufsize=30000 / crf_max=0.0 / nal_hrd=none / filler=0 / ip_ratio=1.40 / aq=1:1.00
Язык : English
Default : Нет
Forced : Нет
Аудио #1
Идентификатор : 2
Формат : DTS
Формат/Информация : Digital Theater Systems
Идентификатор кодека : A_DTS
Продолжительность : 1 ч. 31 м.
Вид битрейта : Постоянный
Битрейт : 768 Кбит/сек
Каналы : 6 каналов
Расположение каналов : Front: L C R, Side: L R, LFE
Частота : 48,0 КГц
Битовая глубина : 24 бит
Метод сжатия : С потерями
Размер потока : 495 Мбайт (4%)
Язык : Russian
Default : Да
Forced : Нет
Аудио #2
Идентификатор : 3
Формат : AC-3
Формат/Информация : Audio Coding 3
Расширение режима : CM (complete main)
Параметр Endianness формата : Big
Идентификатор кодека : A_AC3
Продолжительность : 1 ч. 31 м.
Вид битрейта : Постоянный
Битрейт : 640 Кбит/сек
Каналы : 6 каналов
Расположение каналов : Front: L C R, Side: L R, LFE
Частота : 48,0 КГц
Битовая глубина : 16 бит
Метод сжатия : С потерями
Размер потока : 420 Мбайт (4%)
Язык : English
Default : Нет
Forced : Нет

Скриншоты


Благодарности релизеру (14)

Торрент:

Статус:

Размер:

Зарегистрирован   [ 2015-03-03 15:54 ]

проверено

11.34 GB

 
 Мнение о фильме (12)





СПАСИБО МУЛЬТ КЛАСС ЖДАЛ В 3 Д!
 

Спасибо за раздачу!
 

Спасибо за раздачу!
 

а в какое время раздача идет?
 

все время.
 

почему то у меня показывает что ноль сидов все время да и на этой странице выше аналогично 0 сидов :(
 

smishk информация о количестве сидов и др. не работает уже давно
 

проблема с тем что не качает видимо имеет корни тут
http://torrents3d.ru/article/11083/40/#comments_list
пришлось тянуть этот же релиз с другого трекера (((
 

есть артефакты в левой части.
 

vovan8 артефакты есть и в правой части , но это не мой косяк , на диске также.
 

Тогда извините. Студия накосячила значит.
 

Спасибо за раздачу!