Торренты   
 
 

 

Хоббит: Битва пяти воинств / The Hobbit: The Battle of the Five Armies (Питер Джексон) [2014 г.,BDrip, Anamorph, SideBySide]

Рейтинг 3D:
10 голосов
7.6
Рейтинг фильма:
12 голосов
8.6
 
Вы должны быть авторизированы,
чтобы ставить оценки


Хоббит: Битва пяти воинств / The Hobbit: The Battle of the Five Armies
Год выпуска: 2014
Страна: Новая Зеландия, США
Жанр: фэнтези, приключения
Продолжительность: 02:24:35
Перевод: Профессиональный (полное дублирование) (iTunes Russia)
Режиссер: Питер Джексон
В ролях: Мартин Фриман, Иэн МакКеллен, Ричард Армитедж, Люк Эванс, Эванджелин Лилли, Ли Пейс, Орландо Блум, Бенедикт Камбербэтч, Кен Стотт, Эйдан Тернер
Описание: Когда отряд из тринадцати гномов нанимал хоббита Бильбо Бэгинса в качестве взломщика и четырнадцатого, «счастливого», участника похода к Одинокой горе, Бильбо полагал, что его приключения закончатся, когда он выполнит свою задачу — найдет сокровище, которое так необходимо предводителю гномов Торину. Путешествие в Эребор, захваченное драконом Смаугом королевство гномов, оказалось еще более опасным, чем предполагали гномы и даже Гэндальф — мудрый волшебник, протянувший Торину и его отряду руку помощи.
В погоню за гномами устремилась армия орков, ведомых пробудившимся в руинах древним злом, а эльфы и люди, с которыми Бильбо и его товарищам пришлось иметь дело во время путешествия и которые пострадали от последствий желания гномов вернуть свой дом, предъявили права на щедрое вознаграждение — часть сокровищ Одинокой горы. Скоро неподалеку от Одинокой горы встретятся пять армий, и лишь кровопролитная битва определит результаты смелого гномьего похода.
Формат 3D: BDrip, Anamorph, SideBySide
Видео: AVC, High@L4.1, 1920х1080, 23,976 кадра/сек, 13,6 Мбит/сек
Аудио: Rus, AC-3, 6 каналов, 384 Кбит/сек, 48,0 КГц
Субтитры: Русские форсированные, кодировка ANSI, отдельным файлом.
Субтитры: Русские форсированные, кодировка UTF-8, отдельным файлом.
Дополнительно:Рип с забугорного трекера

Скриншоты




Media Info

Общее
Уникальный идентификатор : 216140939686082132718841240434852019216 (0xA29B3B1560986D809D50A6223104BC10)
Полное имя : F:\STEREO\The.Hobbit.The.Battle.of.the.Five.Armies.Half-SBS\The.Hobbit.The.Battle.of.the.Five.Armies.Half-SBS.mkv
Формат : Matroska
Версия формата : Version 2
Размер файла : 14,4 Гбайт
Продолжительность : 2 ч. 24 м.
Общий поток : 14,3 Мбит/сек
Дата кодирования : UTC 2015-03-07 22:28:56
Программа кодирования : mkvmerge v3.4.0 ('Rapunzel') сборка от May 15 2010 09:38:20
Библиотека кодирования : libebml v0.8.0 + libmatroska v0.9.0
Видео
Идентификатор : 1
Формат : AVC
Формат/Информация : Advanced Video Codec
Профиль формата : High@L4.1
MultiView_Count : 2
MultiView_Layout : Right Eye
Параметр CABAC формата : Да
Параметр ReFrames формата : 4 кадра
Идентификатор кодека : V_MPEG4/ISO/AVC
Продолжительность : 2 ч. 24 м.
Битрейт : 13,6 Мбит/сек
Ширина : 1920 пикселей
Высота : 1080 пикселей
Соотношение сторон : 16:9
Режим частоты кадров : Постоянный
Частота кадров : 23,976 кадра/сек
Цветовое пространство : YUV
Субдискретизация насыщенности : 4:2:0
Битовая глубина : 8 бит
Тип развёртки : Прогрессивная
Бит/(Пиксели*Кадры) : 0.274
Размер потока : 13,8 Гбайт (95%)
Библиотека кодирования : x264 core 133 r2334kMod a3ac64b
Настройки программы : cabac=1 / ref=4 / deblock=1:-3:-3 / analyse=0x3:0x133 / me=umh / subme=11 / psy=1 / fade_compensate=0.00 / psy_rd=1.00:0.00 / mixed_ref=1 / me_range=24 / chroma_me=1 / trellis=2 / 8x8dct=1 / cqm=0 / deadzone=21,11 / fast_pskip=0 / chroma_qp_offset=-2 / threads=18 / lookahead_threads=3 / sliced_threads=0 / nr=0 / decimate=0 / interlaced=0 / bluray_compat=0 / constrained_intra=0 / bframes=8 / b_pyramid=2 / b_adapt=2 / b_bias=0 / direct=3 / weightb=1 / open_gop=0 / weightp=2 / keyint=250 / keyint_min=23 / scenecut=40 / intra_refresh=0 / rc=crf / mbtree=0 / crf=16.0000 / qcomp=0.65 / qpmin=0 / qpmax=69 / qpstep=4 / frame-packing=4 / ip_ratio=1.20 / pb_ratio=1.10 / aq=3:0.70
Язык : English
Default : Нет
Forced : Нет
Аудио
Идентификатор : 2
Формат : AC-3
Формат/Информация : Audio Coding 3
Расширение режима : CM (complete main)
Параметр Endianness формата : Big
Идентификатор кодека : A_AC3
Продолжительность : 2 ч. 24 м.
Вид битрейта : Постоянный
Битрейт : 384 Кбит/сек
Каналы : 6 каналов
Расположение каналов : Front: L C R, Side: L R, LFE
Частота : 48,0 КГц
Битовая глубина : 16 бит
Метод сжатия : С потерями
Размер потока : 397 Мбайт (3%)
Заголовок : DUB, iTunes
Язык : Russian
Default : Нет
Forced : Нет
Благодарности релизеру (23)

Торрент:

Статус:

Размер:

Зарегистрирован   [ 2015-03-08 03:07 ]

поглощено

14.44 GB