Торренты   
 
 

 

Гopoд гepоeв в 3Д / Віg Неrо 6 3D (Дон Холл, Крис Уильямс / Don Hall, Chris Williams) [2014, Мультфильм, Фантастика, Комедия, Семейный, Боевик, BDrip, 1080p]Full OverUnder / Вертикальная стереопара

Рейтинг 3D:
6 голосов
7.3
Рейтинг фильма:
6 голосов
7.5
 
Вы должны быть авторизированы,
чтобы ставить оценки


Город героев / Big Hero 6
Год выпуска: 2014
Страна: США (Walt Disney Animation Studios)
Жанр: Мультфильм, Фантастика, Комедия, Семейный, Боевик
Продолжительность: 1:41:53
Перевод: Профессиональный дублированный(Лицензия)
Русские субтитры: нет
Режиссер: Дон Холл, Крис Уильямс / Don Hall, Chris Williams
В ролях: Райан Поттер, Скотт Эдсит, Дэниэл Хенни, ТиДжей Миллер, Джейми Чунг, Дэймон Уайанс мл., Дженезис Родригез, Джеймс Кромуэлл, Алан Тьюдик, Майя Рудольф
Роли озвучивали: Даниил Рагин, Максим Сергеев, Игорь Сергеев, Валерий Смекалов, Аделина Червякова
Описание: Юный Хиро Хамада — прирожденный изобретатель и гений конструирования роботов. Вместе со старшим братом Тадаши они воплощают в жизнь самые передовые идеи в Техническом университете города будущего Сан-Франсокио. После серии загадочных событий друзья оказываются в центре коварного заговора. Отчаявшись, Хиро решает использовать веселого и добродушного экспериментального робота Бэймакса, перепрограммировав его в неуязвимую боевую машину.
Сэмпл: http://sendfile.su/1173415
Качество: BDrip
Контейнер: MKV
Формат 3D: OverUnder / Вертикальная стереопара
Порядок ракурсов: левый ракурс первый
Видео кодек: x264
Аудио кодек: AC3
Видео: AVC / High@L5.0 / 23,976 fps / 1920х1600 / 13,1 Мбит/сек
Аудио: Русский / AC3 / 48 KHz / 5.1 ch / 640 Кбит/сек(Лицензия)
Аудио 2: Английский / AC3 / 48 KHz / 5.1 ch / 640 Кбит/сек
Релиз группы: ВНИМАНИЕ ! На встроенных ТВ-плеерах работать не будет!!!
ТВ Samsung в названии которого есть надпись Ultra HD , и LG Ultra HD 800 серии воспроизводят полные стереопары встроенными плеерами
Железные плееры на которых воспроизводятся полные стереопары:Popcorn C-200 , Dune HD Smart D1 , Dune HD DUO , Dune HD Smart H1 , Dune HD Smart B1 , Dune HD Max , Dune HD TV-303D , Dune HD Base 3D, Philips HMP7001
20.03.2015. Релиз обновлён - русская звуковая дорога (iTunes) заменена на лицензию.
Желающие, скачайте заново торрент-файл.

MediaInfo

Общее
Уникальный идентификатор : 248809650559520906494632520750751649959 (0xBB2EFEE2B09144B591AFDDC68AD590A7)
Полное имя : E:\закачки\Big Hero 6.Rip by SeRoGa00.mkv
Формат : Matroska
Версия формата : Version 2
Размер файла : 10,3 Гбайт
Продолжительность : 1 ч. 42 м.
Общий поток : 14,4 Мбит/сек
Дата кодирования : UTC 2015-03-07 19:24:42
Программа кодирования : mkvmerge v3.4.0 ('Rapunzel') сборка от May 15 2010 09:38:20
Библиотека кодирования : libebml v0.8.0 + libmatroska v0.9.0
Видео
Идентификатор : 1
Формат : AVC
Формат/Информация : Advanced Video Codec
Профиль формата : High@L5.0
Параметр CABAC формата : Да
Параметр ReFrames формата : 4 кадра
Идентификатор кодека : V_MPEG4/ISO/AVC
Продолжительность : 1 ч. 42 м.
Битрейт : 13,1 Мбит/сек
Ширина : 1920 пикселей
Высота : 1600 пикселей
Соотношение сторон : 1,200
Частота кадров : 23,976 кадра/сек
Цветовое пространство : YUV
Субдискретизация насыщенности : 4:2:0
Битовая глубина : 8 бит
Тип развёртки : Прогрессивная
Бит/(Пиксели*Кадры) : 0.178
Размер потока : 9,37 Гбайт (91%)
Заголовок : Rip by SeRoGa00
Библиотека кодирования : x264 core 144 r2525 40bb568
Настройки программы : cabac=1 / ref=4 / deblock=1:-3:-3 / analyse=0x3:0x113 / me=umh / subme=9 / psy=1 / psy_rd=1.00:0.15 / mixed_ref=1 / me_range=24 / chroma_me=1 / trellis=2 / 8x8dct=1 / cqm=0 / deadzone=21,11 / fast_pskip=1 / chroma_qp_offset=-3 / threads=9 / lookahead_threads=1 / sliced_threads=0 / nr=0 / decimate=1 / interlaced=0 / bluray_compat=0 / constrained_intra=0 / bframes=8 / b_pyramid=2 / b_adapt=2 / b_bias=0 / direct=3 / weightb=1 / open_gop=0 / weightp=2 / keyint=250 / keyint_min=23 / scenecut=40 / intra_refresh=0 / rc_lookahead=60 / rc=crf / mbtree=1 / crf=18.0 / qcomp=0.60 / qpmin=10 / qpmax=69 / qpstep=4 / vbv_maxrate=30000 / vbv_bufsize=30000 / crf_max=0.0 / nal_hrd=none / filler=0 / ip_ratio=1.40 / aq=1:1.00
Язык : English
Default : Нет
Forced : Нет
Аудио #1
Идентификатор : 2
Формат : AC-3
Формат/Информация : Audio Coding 3
Расширение режима : CM (complete main)
Параметр Endianness формата : Big
Идентификатор кодека : A_AC3
Продолжительность : 1 ч. 42 м.
Вид битрейта : Постоянный
Битрейт : 640 Кбит/сек
Каналы : 6 каналов
Расположение каналов : Front: L C R, Side: L R, LFE
Частота : 48,0 КГц
Битовая глубина : 16 бит
Метод сжатия : С потерями
Размер потока : 281 Мбайт (3%)
Язык : Russian
Default : Да
Forced : Нет
Аудио #2
Идентификатор : 3
Формат : AC-3
Формат/Информация : Audio Coding 3
Расширение режима : CM (complete main)
Параметр Endianness формата : Big
Идентификатор кодека : A_AC3
Продолжительность : 1 ч. 42 м.
Вид битрейта : Постоянный
Битрейт : 640 Кбит/сек
Каналы : 6 каналов
Расположение каналов : Front: L C R, Side: L R, LFE
Частота : 48,0 КГц
Битовая глубина : 16 бит
Метод сжатия : С потерями
Размер потока : 468 Мбайт (4%)
Язык : English
Default : Нет
Forced : Нет

Скриншоты


Благодарности релизеру (8)

Торрент:

Статус:

Размер:

Зарегистрирован   [ 2015-03-20 15:36 ]

проверено

10.49 GB

 
 Мнение о фильме (3)





Телевизор LG 42LA615V, воспроизводит, но из-за того, что 800 строк, вместо 1080, пропорции кадра портятся. :(
 

Кадр рассыпается раз в 30-60 секунд, юзаю PowerDVD
UPD: Такая фигня случается при аппаратном декодинге, переключил на софтверный и стало все ок.
 

МНЕ ПОНРАВИЛСЯ!!!!