Торренты   
 
 


Битва за планету Терра 3D / Battle for Terra 3D (Аристоменис Тсирбас) [2009 г., Anamorph SideBySide]

Рейтинг 3D:
16 голосов
6.7
Рейтинг фильма:
13 голосов
8.2
 
Вы должны быть авторизированы,
чтобы ставить оценки


Битва за планету Терра 3D / Battle for Terra 3D
Год выпуска: 2009
Страна: США
Жанр: фантастика, боевик, триллер, приключения, мультфильм
Продолжительность: 01:15:55
Перевод: Профессиональный (полное дублирование)
Режиссер: Аристоменис Тсирбас
В ролях: Чед Аллен, Розанна Аркетт, Билл Бирч, Брук Блум, Том Коннолли, Брайан Кокс, Дэвид Кросс, Беверли Д`Анджело, Джим Девоти, Крис Эванс и др.
Описание: Когда на планете Земля пересохли все реки, исчезли леса, а воздух превратился в пыль, люди исколесили Галактику, чтобы найти себе новый дом. Прекрасная планета Терра стала надеждой людей на спасение. Хитроумное устройство землян Терраформер должен превратить Терру в рай для людей и кошмар для коренных жителей. Катастрофа для террианцев неизбежна, они обречены. Счет идет на дни и часы. И все бы шло по плану, если не одна случайность. Девочка с Терры Молу подбирает раненого пилота — землянина. Они становятся лучшими друзьями и вместе находят хитрый способ спасти Терру — последнюю живую планету Галактики. Они не подозревают, что сразу окажутся в центре бурных, опасных, веселых и удивительных событий…
TV-Rip
Формат 3d: Anamorph SideBySide
Порядок ракурсов: Параллельная пара

Скриншоты




MediaInfo

General
Format : MPEG-TS
File size : 5.36 GiB
Duration : 1h 15mn
Overall bit rate : 10.1 Mbps
Maximum Overall bit rate : 35.5 Mbps
Video
ID : 4113 (0x1011)
Menu ID : 1 (0x1)
Format : AVC
Format/Info : Advanced Video Codec
Format profile : Main@L4.0
Format settings, CABAC : Yes
Format settings, ReFrames : 4 frames
Codec ID : 27
Duration : 1h 15mn
Bit rate mode : Variable
Bit rate : 9 158 Kbps
Maximum bit rate : 40.0 Mbps
Width : 1 920 pixels
Height : 1 080 pixels
Display aspect ratio : 16:9
Frame rate : 25.000 fps
Color space : YUV
Chroma subsampling : 4:2:0
Bit depth : 8 bits
Scan type : Interlaced
Scan order : Top Field First
Bits/(Pixel*Frame) : 0.177
Stream size : 4.86 GiB (91%)
Color primaries : BT.709-5, BT.1361, IEC 61966-2-4, SMPTE RP177
Transfer characteristics : BT.709-5, BT.1361
Matrix coefficients : BT.709-5, BT.1361, IEC 61966-2-4 709, SMPTE RP177
Audio
ID : 4352 (0x1100)
Menu ID : 1 (0x1)
Format : AC-3
Format/Info : Audio Coding 3
Mode extension : CM (complete main)
Codec ID : 129
Duration : 1h 15mn
Bit rate mode : Constant
Bit rate : 448 Kbps
Channel(s) : 6 channels
Channel positions : Front: L C R, Side: L R, LFE
Sampling rate : 48.0 KHz
Bit depth : 16 bits
Compression mode : Lossy
Delay relative to video : 8s 0ms
Stream size : 243 MiB (4%)
General
ID : 1 (0x1)
Complete name : E:\Battle for Terra 3D.ts
Format : MPEG-TS
File size : 5.36 GiB
Duration : 1h 15mn
Overall bit rate : 10.1 Mbps
Maximum Overall bit rate : 35.5 Mbps
Video
ID : 4113 (0x1011)
Menu ID : 1 (0x1)
Format : AVC
Format/Info : Advanced Video Codec
Format profile : Main@L4.0
Format settings, CABAC : Yes
Format settings, ReFrames : 4 frames
Codec ID : 27
Duration : 1h 15mn
Bit rate mode : Variable
Bit rate : 9 158 Kbps
Maximum bit rate : 40.0 Mbps
Width : 1 920 pixels
Height : 1 080 pixels
Display aspect ratio : 16:9
Frame rate : 25.000 fps
Color space : YUV
Chroma subsampling : 4:2:0
Bit depth : 8 bits
Scan type : Interlaced
Scan order : Top Field First
Bits/(Pixel*Frame) : 0.177
Stream size : 4.86 GiB (91%)
Color primaries : BT.709-5, BT.1361, IEC 61966-2-4, SMPTE RP177
Transfer characteristics : BT.709-5, BT.1361
Matrix coefficients : BT.709-5, BT.1361, IEC 61966-2-4 709, SMPTE RP177
Audio
ID : 4352 (0x1100)
Menu ID : 1 (0x1)
Format : AC-3
Format/Info : Audio Coding 3
Mode extension : CM (complete main)
Codec ID : 129
Duration : 1h 15mn
Bit rate mode : Constant
Bit rate : 448 Kbps
Channel(s) : 6 channels
Channel positions : Front: L C R, Side: L R, LFE
Sampling rate : 48.0 KHz
Bit depth : 16 bits
Compression mode : Lossy
Delay relative to video : 8s 0ms
Stream size : 243 MiB (4%)
Фильм перепакован в другой контейнер - теперь должен читаться телевизорами (проверяйте)
Всем кто скачал предыдущую версию (в формате MKV) и у кого не идет на ТВ смотрите мой пост на третьей странице (если неохота заново качать)
Остальные раздачи этого фильма (5)
Благодарности релизеру (1)

Торрент:

Статус:

Размер:

Зарегистрирован   [ 2011-02-16 17:43 ]

проверено

5.36 GB

 
 Мнение о фильме (4)





Мульт фигня.
 

Отличный мультик и 3D на высоте,полно вылетов!Мне понравился!
 

Кому как, а лично мне понравился. И 3D и сам фильм очень хорошие!
 

Все на высоте.СПАСИБО)))