Торренты   
 
 


Хoббит: Бuтва пятu вoинств в 3Д / The Hоbbit: The Bаttle of the Fivе Аrmies 3D (Питeр Джeксон / Pеter Jаcksоn) [2014, Фэнтези, Приключения, BDrip-AVC] Half OverUnder / Вертикальная анаморфная стереопара

Рейтинг 3D:
24 голосов
6.5
Рейтинг фильма:
25 голосов
6.6
 
Вы должны быть авторизированы,
чтобы ставить оценки


Хоббит: Битва пяти воинств / The Hobbit: The Battle of the Five Armies
Год выпуска: 2014
Страна: Новая Зеландия, США
Жанр: Фэнтези, Приключения
Продолжительность: 2:24:28
Перевод: Профессиональный (полное дублирование)
Режиссер: Питер Джексон
В ролях: Мартин Фриман, Иэн МакКеллен, Ричард Армитедж, Люк Эванс, Эванджелин Лилли, Ли Пейс, Орландо Блум, Бенедикт Камбербэтч, Кен Стотт, Эйдан Тернер
Описание: Когда отряд из тринадцати гномов нанимал хоббита Бильбо Бэгинса в качестве взломщика и четырнадцатого, «счастливого», участника похода к Одинокой горе, Бильбо полагал, что его приключения закончатся, когда он выполнит свою задачу — найдет сокровище, которое так необходимо предводителю гномов Торину. Путешествие в Эребор, захваченное драконом Смаугом королевство гномов, оказалось еще более опасным, чем предполагали гномы и даже Гэндальф — мудрый волшебник, протянувший Торину и его отряду руку помощи.
В погоню за гномами устремилась армия орков, ведомых пробудившимся в руинах древним злом, а эльфы и люди, с которыми Бильбо и его товарищам пришлось иметь дело во время путешествия и которые пострадали от последствий желания гномов вернуть свой дом, предъявили права на щедрое вознаграждение — часть сокровищ Одинокой горы. Скоро неподалеку от Одинокой горы встретятся пять армий, и лишь кровопролитная битва определит результаты смелого гномьего похода.
Доп. информация: Из видео вырезана тёмная пауза на стыке дисков (т.е. синхронизировано с 2Д версией фильма).
Качество: BDRip (by Ash61)
Контейнер: MKV
Формат 3D: Half OverUnder / Вертикальная анаморфная стереопара
Порядок ракурсов: левый ракурс первый
Видео: AVC / 23,976 fps / 1920х1080p / 10.8 Mbps
Аудио:
#1 - Русский / AC3 / 48.0 KHz, 6 ch, 448 Kbps |Дубляж, Blu-ray CEE|
#2 - Украинский AC-3, 48.0 KHz, 6 ch, 448 Kbps, CBR
#3 - Английский / AC3 / 48 KHz / 5.1 ch / 640 Kbps (Original)
Субтитры: (SRT)
Вшитые (softsub):
#1 - Русские Форсированные (включены по умолчанию)
#2 - Русские Полные
#3 - Украинские Форсированные
#4 - English Full
#5 - English SDH
Внешние UTF-8
#1 - Русские Форсированные (включены по умолчанию)
#2 - Украинские Форсированные
21.03.2015. Релиз обновлён - русская и украинская дороги заменены на лицензию.

Скриншоты



Media Info

Общее
Уникальный идентификатор : 217655988747275815298296659622409875015 (0xA3BF04C4F58E81F2BA67249D59B92E47)
Полное имя : TheHobbit3(2014)3D-halfOU(Ash61)iTunes\TheHobbit3(2014)3D-halfOU(Ash61)iTunes.mkv
Формат : Matroska
Версия формата : Version 2
Размер файла : 12,5 Гбайт
Продолжительность : 2 ч. 24 м.
Общий поток : 12,4 Мбит/сек
Название фильма : Хоббит: Битва пяти воинств / The Hobbit: The Battle of the Five Armies (2014) 3D
Дата кодирования : UTC 2015-03-08 23:33:22
Программа кодирования : mkvmerge v5.8.0 ('No Sleep / Pillow') built on Sep 2 2012 15:37:04
Библиотека кодирования : libebml v1.2.3 + libmatroska v1.3.0
Видео
Идентификатор : 1
Формат : AVC
Формат/Информация : Advanced Video Codec
Профиль формата : High@L4.1
Параметр CABAC формата : Да
Параметр ReFrames формата : 4 кадра
Идентификатор кодека : V_MPEG4/ISO/AVC
Продолжительность : 2 ч. 24 м.
Битрейт : 10,8 Мбит/сек
Ширина : 1920 пикселей
Высота : 1080 пикселей
Соотношение сторон : 16:9
Режим частоты кадров : Постоянный
Частота кадров : 23,976 кадра/сек
Цветовое пространство : YUV
Субдискретизация насыщенности : 4:2:0
Битовая глубина : 8 бит
Тип развёртки : Прогрессивная
Бит/(Пиксели*Кадры) : 0.218
Размер потока : 10,9 Гбайт (88%)
Заголовок : BDRip by Ash61
Библиотека кодирования : x264 core 138 r2358 9e941d1
Настройки программы : cabac=1 / ref=4 / deblock=1:-3:-3 / analyse=0x3:0x113 / me=umh / subme=10 / psy=1 / psy_rd=1.00:0.00 / mixed_ref=1 / me_range=32 / chroma_me=1 / trellis=2 / 8x8dct=1 / cqm=0 / deadzone=21,11 / fast_pskip=1 / chroma_qp_offset=-2 / threads=12 / lookahead_threads=2 / sliced_threads=0 / nr=0 / decimate=1 / interlaced=0 / bluray_compat=0 / constrained_intra=0 / bframes=8 / b_pyramid=2 / b_adapt=2 / b_bias=0 / direct=3 / weightb=1 / open_gop=0 / weightp=2 / keyint=250 / keyint_min=23 / scenecut=40 / intra_refresh=0 / rc_lookahead=60 / rc=crf / mbtree=1 / crf=16.5 / qcomp=0.70 / qpmin=0 / qpmax=69 / qpstep=4 / vbv_maxrate=40000 / vbv_bufsize=30000 / crf_max=0.0 / nal_hrd=none / frame-packing=4 / ip_ratio=1.40 / aq=1:0.70
Язык : English
Default : Да
Forced : Нет
Аудио #1
Идентификатор : 2
Формат : AC-3
Формат/Информация : Audio Coding 3
Расширение режима : CM (complete main)
Параметр Endianness формата : Big
Идентификатор кодека : A_AC3
Продолжительность : 2 ч. 24 м.
Вид битрейта : Постоянный
Битрейт : 384 Кбит/сек
Каналы : 6 каналов
Расположение каналов : Front: L C R, Side: L R, LFE
Частота : 48,0 КГц
Битовая глубина : 16 бит
Метод сжатия : С потерями
Размер потока : 397 Мбайт (3%)
Заголовок : Дубляж - iTunes
Язык : Russian
Default : Да
Forced : Нет
Аудио #2
Идентификатор : 3
Формат : AC-3
Формат/Информация : Audio Coding 3
Расширение режима : CM (complete main)
Параметр Endianness формата : Big
Идентификатор кодека : A_AC3
Продолжительность : 2 ч. 24 м.
Вид битрейта : Постоянный
Битрейт : 256 Кбит/сек
Каналы : 2 канала
Расположение каналов : Front: L R
Частота : 48,0 КГц
Битовая глубина : 16 бит
Метод сжатия : С потерями
Размер потока : 265 Мбайт (2%)
Заголовок : Дубляж - iTunes
Язык : Ukrainian
Default : Нет
Forced : Нет
Аудио #3
Идентификатор : 4
Формат : AC-3
Формат/Информация : Audio Coding 3
Расширение режима : CM (complete main)
Параметр Endianness формата : Big
Идентификатор кодека : A_AC3
Продолжительность : 2 ч. 24 м.
Вид битрейта : Постоянный
Битрейт : 640 Кбит/сек
Каналы : 6 каналов
Расположение каналов : Front: L C R, Side: L R, LFE
Частота : 48,0 КГц
Битовая глубина : 16 бит
Метод сжатия : С потерями
Размер потока : 661 Мбайт (5%)
Default : Нет
Forced : Нет
Текст #1
Идентификатор : 5
Формат : UTF-8
Идентификатор кодека : S_TEXT/UTF8
Идентификатор кодека/Информация : UTF-8 Plain Text
Заголовок : Форсированные
Язык : Russian
Default : Да
Forced : Нет
Текст #2
Идентификатор : 6
Формат : UTF-8
Идентификатор кодека : S_TEXT/UTF8
Идентификатор кодека/Информация : UTF-8 Plain Text
Заголовок : Полные
Язык : Russian
Default : Нет
Forced : Нет
Текст #3
Идентификатор : 7
Формат : UTF-8
Идентификатор кодека : S_TEXT/UTF8
Идентификатор кодека/Информация : UTF-8 Plain Text
Заголовок : Форсированные
Язык : Ukrainian
Default : Нет
Forced : Нет
Текст #4
Идентификатор : 8
Формат : UTF-8
Идентификатор кодека : S_TEXT/UTF8
Идентификатор кодека/Информация : UTF-8 Plain Text
Заголовок : Full
Язык : English
Default : Нет
Forced : Нет
Текст #5
Идентификатор : 9
Формат : UTF-8
Идентификатор кодека : S_TEXT/UTF8
Идентификатор кодека/Информация : UTF-8 Plain Text
Заголовок : SDH
Язык : English
Default : Нет
Forced : Нет
Меню
00:00:00.000 : :1. Fire and Water
00:05:12.395 : :2. Bard the Dragon-Slayer
00:12:26.287 : :3. Dungeons of the Dark Lord
00:12:58.528 : :4. Shores of the Long Lake
00:18:36.657 : :5. Not at Home
00:23:21.400 : :6. "Others will Now Look to the Mountain"
00:24:35.391 : :7. Legions of the Defiler
00:25:43.625 : :8. The Mark of Gundabad
00:27:12.256 : :9. Attack on Dol Guldur
00:34:30.110 : :10. The King's Jewel
00:38:27.722 : :11. The Ruins of Dale
00:39:46.968 : :12. Erebor Fortified
00:40:57.580 : :13. The Elvenking's Aid
00:43:54.507 : :14. The Gathering of the Clouds
00:49:06.026 : :15. A Token of Friendship
00:52:36.320 : :16. The Shadow of Gundabad
00:53:53.188 : :17. "The Last Move in a Master Plan"
00:56:09.658 : :18. Bolg of the North
00:58:04.731 : :19. A Thief in the Night
01:01:57.964 : :20. An Honest Burglar
01:07:13.696 : :21. Dain Ironfoot
01:10:00.446 : :22. The Clouds Burst
01:12:29.887 : :23. The Battle at Dale
01:16:51.524 : :24. The Darkest Hour
01:20:05.926 : :25. Dragon-Sickness
01:22:15.305 : :26. The Return of Thorin Oakenshild
01:24:25.228 : :27. Sons of Durin
01:26:35.901 : :28. "To the King!"
01:29:18.897 : :29. Thorin's Plan
01:31:17.390 : :30. The Fifth Army
01:32:03.853 : :31. Scouting Ravenhill
01:33:01.578 : :32. Blood of the Eldar
01:35:58.171 : :33. Courage and Cowardice
01:36:52.433 : :34. The Fallen
01:40:16.387 : :35. The Battle at Ravenhill
01:48:15.532 : :36. To the Death
01:54:22.441 : :37. Parting in Friendship
01:57:41.640 : :38. The Sorrow of Elves
02:00:47.909 : :39. The Return Journey
02:06:48.436 : :40. The Last Stage
02:11:31.302 : :41. Credits
Благодарности релизеру (44)

Торрент:

Статус:

Размер:

Зарегистрирован   [ 2015-03-21 18:42 ]

* не проверено

12.73 GB

 
 Мнение о фильме (24)

1, 2  След.






killer29, спасибо, быстро! :)
 

killer29, спасибо, быстро! :)
Стараемся...
 

Стантьте на роздачу!!
 

Стантьте на роздачу!!
Раздаю и качают...
 

рассинхрона нет? во многих раздачах в инете с полуторачасов идет небольшая задержка
 

рассинхрона нет? во многих раздачах в инете с полуторачасов идет небольшая задержка
Здесь все нормально...
 

Дайте скорости!))) Столько ждал - аж терпения не хватает..))
 

Скорость в среденем 630 кб/с...
 

Ну у меня в кленте 28 сидов и 36 пиров...но скорость отдачи почему то выше 5 МБ/s не поднимается...хотя утром на др. треккере за 10 была
 

Странно...у меня на этом треккере стабильно 5 мб скорость...вот, час назад норм была, а щас 400-630 максимум..((( А отдача 2 мб/с..))) аааааа, хочу посмотреть!!!))))))
 

Скажите!А почему не на весь екран?
 

И можна как-то эти полосы забрать?
 

на встроенном плейере ТВ LG работает ?
 

без черных полос будет?
 

тоже интересует вопрос выше,стоит ли ждать нам кроповцам хоббита без полос
 

тоже без полос хочется )))
 

скорость нормальное 4.8 mb/s
 

огромное спасибо
 

Сделайте КРОП, только дороги все оставьте, спасибо!
 

встаньте на раздачу!
 

Страница 1 из 2

1, 2  След.