Торренты   
 
 

 

Исход: Цари и боги в 3Д / Exodus: Gods and Kings 3D (Ридли Скотт / Ridley Scott) [2014, Боевик, Драма, Приключения, BDrip, 1080p]Full OverUnder / Вертикальная стереопара

Рейтинг 3D:
11 голосов
7.3
Рейтинг фильма:
13 голосов
7.3
 
Вы должны быть авторизированы,
чтобы ставить оценки


Исход: Цари и боги / Exodus: Gods and Kings
Год выпуска: 2014
Страна: Великобритания, США, Испания (20th Century Fox, TSG Entertainment)
Жанр: Боевик, Драма, Приключения
Продолжительность: 2:30:20
Перевод: Профессиональный дублированный(Лицензия)
Русские субтитры: нет
Режиссер : Ридли Скотт / Ridley Scott
В ролях: Кристиан Бэйл, Джоэл Эдгертон, Джон Туртурро, Аарон Пол, Бен Мендельсон, Мария Вальверде, Сигурни Уивер, Бен Кингсли, Хиам Аббасс, Исаак Эндрюс
Описание: Ветхозаветная история о великом пророке Моисее и освобождении еврейского народа из египетского плена. Моисей появился на свет в те времена, когда фараон приказал убивать всех новорожденных мальчиков еврейского происхождения. Чтобы спасти его, мать положила малыша в корзину из тростника и отправила вниз по Нилу.
Ребенка нашла дочь фараона, которая усыновила его и растила рядом с Рамсесом — будущим фараоном. Много лет спустя, став мужчиной, Моисей бежит из Египта, а затем возвращается туда по велению Господа, чтобы избавить свой народ от оков рабства…
Сэмпл: http://sendfile.su/1103191
Качество: BDrip
Контейнер: MKV
Формат 3D: OverUnder / Вертикальная стереопара
Порядок ракурсов: левый ракурс первый
Видео кодек: x264
Аудио кодек: AC3
Видео: AVC / High@L5.0 / 23,976 fps / 1920х1600 / 19,1 Мбит/сек
Аудио: Русский / DTS / 48 KHz / 5.1 ch / 768 Кбит/сек (Лицензия)
Аудио 2: Английский / AC3 / 48 KHz / 5.1 ch / 640 Кбит/сек
Релиз группы: ВНИМАНИЕ ! На встроенных ТВ-плеерах работать не будет!!!
ТВ Samsung в названии которого есть надпись Ultra HD , и LG Ultra HD 800 серии, Xiaomi Mi TV 2 воспроизводят полные стереопары встроенными плеерами
Железные плееры на которых воспроизводятся полные стереопары:Popcorn C-200 , Dune HD Smart D1 , Dune HD DUO , Dune HD Smart H1 , Dune HD Smart B1 , Dune HD Max , Dune HD TV-303D , Dune HD Base 3D, Philips HMP7001
02.04.2015. Релиз обновлён - русская звуковая дорога(iTunes) заменена на лицензию.
Желающие, скачайте заново торрент-файл.

MediaInfo

Общее
Уникальный идентификатор : 244506302019329400640933011259866363721 (0xB7F2336BE4307B2C934C185F20C63749)
Полное имя : E:\закачки\Exodus Gods and Kings.Rip by SeRoGa00.mkv
Формат : Matroska
Версия формата : Version 2
Размер файла : 22,0 Гбайт
Продолжительность : 2 ч. 30 м.
Общий поток : 21,0 Мбит/сек
Дата кодирования : UTC 2015-04-02 04:40:33
Программа кодирования : mkvmerge v3.4.0 ('Rapunzel') сборка от May 15 2010 09:38:20
Библиотека кодирования : libebml v0.8.0 + libmatroska v0.9.0
Видео
Идентификатор : 1
Формат : AVC
Формат/Информация : Advanced Video Codec
Профиль формата : High@L5.0
Параметр CABAC формата : Да
Параметр ReFrames формата : 4 кадра
Идентификатор кодека : V_MPEG4/ISO/AVC
Продолжительность : 2 ч. 30 м.
Битрейт : 19,2 Мбит/сек
Ширина : 1920 пикселей
Высота : 1600 пикселей
Соотношение сторон : 1,200
Частота кадров : 23,976 кадра/сек
Цветовое пространство : YUV
Субдискретизация насыщенности : 4:2:0
Битовая глубина : 8 бит
Тип развёртки : Прогрессивная
Бит/(Пиксели*Кадры) : 0.260
Размер потока : 20,1 Гбайт (91%)
Заголовок : Rip by SeRoGa00
Библиотека кодирования : x264 core 142 r2479 dd79a61
Настройки программы : cabac=1 / ref=4 / deblock=1:-3:-3 / analyse=0x3:0x113 / me=umh / subme=9 / psy=1 / psy_rd=1.00:0.15 / mixed_ref=1 / me_range=24 / chroma_me=1 / trellis=2 / 8x8dct=1 / cqm=0 / deadzone=21,11 / fast_pskip=1 / chroma_qp_offset=-3 / threads=9 / lookahead_threads=1 / sliced_threads=0 / nr=0 / decimate=1 / interlaced=0 / bluray_compat=0 / constrained_intra=0 / bframes=8 / b_pyramid=2 / b_adapt=2 / b_bias=0 / direct=3 / weightb=1 / open_gop=0 / weightp=2 / keyint=250 / keyint_min=23 / scenecut=40 / intra_refresh=0 / rc_lookahead=60 / rc=crf / mbtree=1 / crf=18.0 / qcomp=0.60 / qpmin=10 / qpmax=69 / qpstep=4 / vbv_maxrate=30000 / vbv_bufsize=30000 / crf_max=0.0 / nal_hrd=none / filler=0 / ip_ratio=1.40 / aq=1:1.00
Язык : English
Default : Нет
Forced : Нет
Аудио #1
Идентификатор : 2
Формат : DTS
Формат/Информация : Digital Theater Systems
Идентификатор кодека : A_DTS
Продолжительность : 2 ч. 30 м.
Вид битрейта : Постоянный
Битрейт : 768 Кбит/сек
Каналы : 6 каналов
Расположение каналов : Front: L C R, Side: L R, LFE
Частота : 48,0 КГц
Битовая глубина : 24 бит
Метод сжатия : С потерями
Размер потока : 811 Мбайт (4%)
Язык : Russian
Default : Да
Forced : Нет
Аудио #2
Идентификатор : 3
Формат : AC-3
Формат/Информация : Audio Coding 3
Расширение режима : CM (complete main)
Параметр Endianness формата : Big
Идентификатор кодека : A_AC3
Продолжительность : 2 ч. 30 м.
Вид битрейта : Постоянный
Битрейт : 640 Кбит/сек
Каналы : 6 каналов
Расположение каналов : Front: L C R, Side: L R, LFE
Частота : 48,0 КГц
Битовая глубина : 16 бит
Метод сжатия : С потерями
Размер потока : 688 Мбайт (3%)
Язык : English
Default : Нет
Forced : Нет

Скриншоты


Благодарности релизеру (14)

Торрент:

Статус:

Размер:

Зарегистрирован   [ 2015-04-02 10:16 ]

проверено

22.02 GB

 
 Мнение о фильме (7)





У большинства все таки еще нет Ultra HD...
 

У большинства все таки еще нет Ultra HD...
Причем здесь ультра?
 

serega768, Уже вышла лицензия, прошу обновить звук!
 

Приветствую , помогите пожалуйста советом, как мне можно этот файл просмотреть с другой версией субтитров , например немецкий , румынский. Файл субтитров я достать могу, но будут ли они отображаться правильно в 3д ?
 

Скажите, а почему здесь http://torrents3d.ru/article/11221/ соотношение сторон 5:4?
Не могу нормально выставить соотношение сторон. Смотрю с ПК медиа плеер классик.
 

Bormintal, цифровыми клавишами справа (Num Lock) регулируйте пропорции (4-6; 8-2).
 

цифровыми клавишами справа (Num Lock) регулируйте пропорции (4-6; 8-2).
Пробовал, высоту не получается при такой паре регулировать.