Торренты   
 
 


Секретный эксперимент / The Banshee Chapter (Блэр Эриксон / Blair Erickson) [2013 г., Anamorph OverUnder]

Рейтинг 3D:
8 голосов
4.5
Рейтинг фильма:
7 голосов
4.1
 
Вы должны быть авторизированы,
чтобы ставить оценки


Секретный эксперимент / The Banshee Chapter
Год выпуска: 2013
Страна: Германия, США
Жанр: триллер, ужасы
Продолжительность: 01:27:08
Перевод: Профессиональный (полное дублирование)
Режиссер: Блэр Эриксон / Blair Erickson
В ролях: Катя Винтер, Тед Левайн, Майкл МакМиллиан, Моник Канделария, Чед Брамметт, Дженни Гэбриэлль, Дж.Д. Гарфилд, Алекс Джианопулос, Дэвид Мидфандер, Вивиан Несбитт
Описание: История расскажет о молодой журналистке, расследующей таинственное исчезновение своего друга, который был замешан в правительственном эксперименте.
Видео: 1920х1080 h264
Аудио:
1. Русский - АС3 / 5.1 ch / 384 kbps
2. Английский - AC3 / 5.1 ch / 640 kbps

Субтитры:

1. Английские (полные)
Формат 3D: Anamorph OverUnder

скриншоты


MediaInfo

Video
ID : 1
Format : AVC
Format/Info : Advanced Video Codec
Format profile : High@L4.1
Format settings, CABAC : Yes
Format settings, ReFrames : 3 frames
Codec ID : V_MPEG4/ISO/AVC
Duration : 1h 27mn
Bit rate : 8 898 Kbps
Width : 1 920 pixels
Height : 1 080 pixels
Display aspect ratio : 16:9
Frame rate mode : Constant
Frame rate : 23.976 fps
Color space : YUV
Chroma subsampling : 4:2:0
Bit depth : 8 bits
Scan type : Progressive
Bits/(Pixel*Frame) : 0.179
Stream size : 5.42 GiB (88%)
Writing library : x264 core 128 r2216M 198a7ea
Encoding settings : cabac=1 / ref=4 / deblock=1:-3:-3 / analyse=0x3:0x133 / me=umh / subme=9 / psy=1 / psy_rd=1.00:0.20 / mixed_ref=1 / me_range=16 / chroma_me=1 / trellis=2 / 8x8dct=1 / cqm=0 / deadzone=21,11 / fast_pskip=1 / chroma_qp_offset=-3 / threads=4 / lookahead_threads=1 / sliced_threads=0 / nr=0 / decimate=1 / interlaced=0 / bluray_compat=0 / constrained_intra=0 / bframes=6 / b_pyramid=1 / b_adapt=2 / b_bias=0 / direct=3 / weightb=1 / open_gop=0 / weightp=2 / keyint=230 / keyint_min=23 / scenecut=40 / intra_refresh=0 / rc_lookahead=40 / rc=crf / mbtree=1 / crf=18.0 / qcomp=0.60 / qpmin=10 / qpmax=51 / qpstep=4 / ip_ratio=1.40 / aq=1:1.00
Default : Yes
Forced : No
Audio #1
ID : 2
Format : AC-3
Format/Info : Audio Coding 3
Mode extension : CM (complete main)
Format settings, Endianness : Big
Codec ID : A_AC3
Duration : 1h 27mn
Bit rate mode : Constant
Bit rate : 384 Kbps
Channel(s) : 6 channels
Channel positions : Front: L C R, Side: L R, LFE
Sampling rate : 48.0 KHz
Bit depth : 16 bits
Compression mode : Lossy
Stream size : 239 MiB (4%)
Language : Russian
Default : Yes
Forced : No
Audio #2
ID : 3
Format : AC-3
Format/Info : Audio Coding 3
Mode extension : CM (complete main)
Format settings, Endianness : Big
Codec ID : A_AC3
Duration : 1h 27mn
Bit rate mode : Constant
Bit rate : 640 Kbps
Channel(s) : 6 channels
Channel positions : Front: L C R, Side: L R, LFE
Sampling rate : 48.0 KHz
Bit depth : 16 bits
Compression mode : Lossy
Delay relative to video : 27ms
Stream size : 399 MiB (6%)
Language : English
Default : No
Forced : No
Text
ID : 4
Format : UTF-8
Codec ID : S_TEXT/UTF8
Codec ID/Info : UTF-8 Plain Text
Language : English
Default : No
Forced : No
Благодарности релизеру (13)

Торрент:

Статус:

Размер:

Зарегистрирован   [ 2015-03-30 21:41 ]

* не проверено

6.16 GB

 
 Мнение о фильме (11)





там нет 3D.фильм на 1 раз.
 

3Д имеется, не автоконверт.
 

Как фильм?
 

IMDb: 5.50 (3899)
 

 

смысл в 3D?если там темнота и трясущаяся камера?ни влетов ни вылетов.=)))фильм в целом понравился но на 1 раз.
у кого другое мнение??
 

Фильм не понравился. Недумал что США и Германия такую хрень поставят)))
За труды спасибо!3д вроде присудствует)))
 

Скрины для оценки 3Д:

Со скринов данного релиза


Со скринов другого релиза





 

ash61, и где же тут фейк? На моих скринах за парнем исчезают плитки, за девушкой - надписи. В чем фейковость-то?
 

Sergey81, пусть всё-таки выскажется Oreon, закрывший раздачу. Я сужу только по скринам, а он вроде просмотрел фильм.
Как решит, так и будет...
 

Ну елки... просмотрел фильм... Я тоже его просмотрел. Никакого автоконверта там нет.