Торренты   
 
 


Они сражались за родину 3D [1975 г., Anaglyph, red'cyan]

Рейтинг 3D:
Пока никто не голосовал
Рейтинг фильма:
Пока никто не голосовал
 
Вы должны быть авторизированы,
чтобы ставить оценки


Они сражались за родину 3D
Год выпуска: 1975
Страна: СССР
Жанр: драма, военный, история
Продолжительность: 00:05:05
Описание: Трейлер фильма ко Дню Победы сконвертирован из 2D в 3D. В память нашим дедам и в назидание тем кто это забыл!
Формат 3D: Anaglyph
Цвета очков:

Видео: 1080p

Скриншоты



Media Info

Общее
Уникальный идентификатор : 168348648403719580577546155723716462494 (0x7EA6C532C2870C1E037BA147C20E879E)
Полное имя : C:\Users\Администратор\Desktop\Pobeda3D.mkv
Формат : Matroska
Версия формата : Version 2
Размер файла : 379 Мбайт
Продолжительность : 5 м. 5 с.
Общий поток : 10,4 Мбит/сек
Программа кодирования : Lavf51.12.1
Библиотека кодирования : Lavf51.12.1
Видео
Идентификатор : 1
Формат : AVC
Формат/Информация : Advanced Video Codec
Профиль формата : Baseline@L4.0
Параметр CABAC формата : Нет
Параметр ReFrames формата : 1 кадр
Параметр GOP формата : M=1, N=12
Идентификатор кодека : V_MPEG4/ISO/AVC
Продолжительность : 5 м. 5 с.
Битрейт : 10,1 Мбит/сек
Ширина : 1920 пикселей
Высота : 1080 пикселей
Соотношение сторон : 16:9
Режим частоты кадров : Постоянный
Частота кадров : 25,000 кадров/сек
Цветовое пространство : YUV
Субдискретизация насыщенности : 4:2:0
Битовая глубина : 8 бит
Тип развёртки : Прогрессивная
Бит/(Пиксели*Кадры) : 0.194
Размер потока : 367 Мбайт (97%)
Default : Да
Forced : Нет
Аудио
Идентификатор : 2
Формат : AC-3
Формат/Информация : Audio Coding 3
Расширение режима : CM (complete main)
Параметр Endianness формата : Big
Идентификатор кодека : A_AC3
Продолжительность : 5 м. 5 с.
Вид битрейта : Постоянный
Битрейт : 128 Кбит/сек
Каналы : 2 канала
Расположение каналов : Front: L R
Частота : 44,1 КГц
Битовая глубина : 16 бит
Метод сжатия : С потерями
Размер потока : 4,66 Мбайт (1%)
Default : Да
Forced : Нет
Благодарности релизеру (3)

Торрент:

Статус:

Размер:

Зарегистрирован   [ 2015-04-05 12:29 ]

* не проверено

379 MB

 
 Мнение о фильме (4)





Прикольно.
 

А раздавать когда будете?
 
Андрей Соболь Профиль 08-Апр-2015 11:46

Посмотреть можно тут http://www.youtube.com/watch?v=Fr_LncEh47E
 

Когда исходник хорошего качества, то и результат интересно смотреть. Но все таки хотелось бы скачать, раз здесь размещено, а не на ю-тьюб посылаться