Торренты   
 
 

 

Тpи бoгaтыpя: Хoд кoнeм [2014, BDRip, half1080p, Anamorph OverUnder]

Рейтинг 3D:
19 голосов
7.2
Рейтинг фильма:
20 голосов
6.5
 
Вы должны быть авторизированы,
чтобы ставить оценки


-Три богатыря: Ход конем
Год выпуска: 2014
Страна: Россия (Наше Кино, Анимационная студия Мельница, Кинокомпания CTB)
Жанр: Мультфильм, Комедия, Приключения, Фэнтези
Продолжительность: 01:14:47
Перевод: Не требуется
Режиссер: Константин Феоктистов-Роли озвучивали:

князь Киевский - Сергей Маковецкий
конь Юлий - Дмитрий Высоцкий
дуб - Дмитрий Нагиев
Алеша Попович - Олег Куликович
Добрыня Никитич - Валерий Соловьев
Илья Муромец - Дмитрий Быковский-Ромашов
Потаня - Гоша Куценко
цыганка - Наргиз Закирова
Тихон - Анатолий Петров
Любава - Лия Медведева
Алёнушка - Мария Цветкова-Овсянникова
Настасья - Елена Шульман
Антипка - Александр Боярский
Усыня - Максим Сергеев
певец - Михаил Хрусталев
рассказчик - Михаил Черняк
-Описание: Придворный конь Гай Юлий Цезарь на свою беду подслушивает разговор бояр и узнает о заговоре против князя. Что же делать? Защитить-то князя некому! Богатыри далеко — ловят разбойника Потаню, Горыныч в отпуске, войско на учениях… Но если плохие парни собираются захватить мир, то кому-то же надо его спасти? Кто же он, настоящий герой, который придет на помощь? Конечно, конь Юлий! Настоящий стратег и «великий комбинатор». Он непременно всех спасет, а если не спасет, то хотя бы постарается. Главное, чтобы операция по спасению мира не обернулась полной катастрофой.-Премьера: 1 января 2015
Релиз на Blu-Ray (DVD) (Россия): 24 февраля 2015

. .
За исходный BD 3D спасибо TRAHTOZABR и
-Качество: BDRip (by Ash61)
Контейнер: MKV
Формат 3D: Half OverUnder / Вертикальная анаморфная стереопара
Порядок ракурсов: левый ракурс первый-Видео: AVC / 23,976 fps / 1920х1080p / ~5.5 Mbps
Аудио: Русский / AC3 / 48 KHz / 5.1 ch / 640 Kbps (Оригинал - BD 3D)
Субтитры: Отсутствуют

Лог кодирования и MediaInfo


General
Unique ID : 192884098076007376536396261591111462564 (0x911C2043602A0C6BB5EBFB5F8BB46EA4)
Complete name : E:\TriBogatyrya.HodKonem(2014)3D-halfOU(Ash61).mkv
Format : Matroska
Format version : Version 2
File size : 3.26 GiB
Duration : 1h 14mn
Overall bit rate : 6 233 Kbps
Movie name : Три богатыря: Ход конем (2014) 3D
Encoded date : UTC 2015-04-06 15:33:06
Writing application : mkvmerge v5.8.0 ('No Sleep / Pillow') built on Sep 2 2012 15:37:04
Writing library : libebml v1.2.3 + libmatroska v1.3.0
Video
ID : 1
Format : AVC
Format/Info : Advanced Video Codec
Format profile : High@L4.1
Format settings, CABAC : Yes
Format settings, ReFrames : 4 frames
Codec ID : V_MPEG4/ISO/AVC
Duration : 1h 14mn
Bit rate : 5 469 Kbps
Width : 1 920 pixels
Height : 1 080 pixels
Display aspect ratio : 16:9
Frame rate mode : Constant
Frame rate : 23.976 fps
Color space : YUV
Chroma subsampling : 4:2:0
Bit depth : 8 bits
Scan type : Progressive
Bits/(Pixel*Frame) : 0.110
Stream size : 2.86 GiB (88%)
Title : BDRip by Ash61
Writing library : x264 core 138 r2358 9e941d1
Encoding settings : cabac=1 / ref=4 / deblock=1:-3:-3 / analyse=0x3:0x113 / me=umh / subme=10 / psy=1 / psy_rd=1.00:0.00 / mixed_ref=1 / me_range=32 / chroma_me=1 / trellis=2 / 8x8dct=1 / cqm=0 / deadzone=21,11 / fast_pskip=1 / chroma_qp_offset=-2 / threads=12 / lookahead_threads=2 / sliced_threads=0 / nr=0 / decimate=1 / interlaced=0 / bluray_compat=0 / constrained_intra=0 / bframes=9 / b_pyramid=2 / b_adapt=2 / b_bias=0 / direct=3 / weightb=1 / open_gop=0 / weightp=2 / keyint=250 / keyint_min=23 / scenecut=40 / intra_refresh=0 / rc_lookahead=60 / rc=crf / mbtree=1 / crf=14.0 / qcomp=0.70 / qpmin=10 / qpmax=69 / qpstep=4 / vbv_maxrate=40000 / vbv_bufsize=30000 / crf_max=0.0 / nal_hrd=none / frame-packing=4 / ip_ratio=1.40 / aq=1:0.70
Language : Russian
Default : Yes
Forced : No
Audio
ID : 2
Format : AC-3
Format/Info : Audio Coding 3
Mode extension : CM (complete main)
Format settings, Endianness : Big
Codec ID : A_AC3
Duration : 1h 14mn
Bit rate mode : Constant
Bit rate : 640 Kbps
Channel(s) : 6 channels
Channel positions : Front: L C R, Side: L R, LFE
Sampling rate : 48.0 KHz
Bit depth : 16 bits
Compression mode : Lossy
Stream size : 342 MiB (10%)
Title : Оригинал - BD 3D
Language : Russian
Default : Yes
Forced : No
Menu
00:00:00.000 : :1
00:09:16.473 : :2
00:18:49.128 : :3
00:27:36.446 : :4
00:37:26.619 : :5
00:47:12.913 : :6
00:54:17.588 : :7
01:03:40.233 : :8

Для оценки 3Д - Анимированные скрины















Благодарности релизеру (46)

Торрент:

Статус:

Размер:

Зарегистрирован   [ 2015-04-06 23:19 ]

проверено

3.26 GB

 
 Мнение о фильме (10)





Большое спасибо!!! Давно ждал.
 

Спасибо!!!Классный мульт.3Д тоже)))
 

ash61, большое спасибо,
А DTS МА звук можете выложить?
 

Из последних богатырей, самый пожалуй интересный.
Спасибо за раздачу.
 

ЗА РАЗДАЧУ, ОГРОМНОЕ СПАСИБО!.А мне так себе , на один раз. 3D там и не пахнет - это псевдо стерео. Нет на 2 мерных аниме 3D
 

прикольно
 

Спасибо, посмотрим.
 

3Д есть, а сюжетец так себе.
 

Отвратительный конверт. В некоторых сценах хочется снять очки - глазам не комфортно. Сюжет плоский.
 

На мой взгляд, одна из самых худших конвертаций в стерео. Ужас. На троечку вытянули (по пятибальной шкале).