Торренты   
 
 


Мартышки в космосе: Ответный удар 3D / Space Chimps 2: Zartog Strikes Back 3D (Джон Х. Уильямс) [2010 г., Anamorph SideBySide]

Рейтинг 3D:
1 голосов
6.0
Рейтинг фильма:
1 голосов
8.0
 
Вы должны быть авторизированы,
чтобы ставить оценки


Мартышки в космосе: Ответный удар 3D / Space Chimps 2: Zartog Strikes Back 3D
Год выпуска: 2010
Страна: США
Жанр: Фантастика, комедия, приключения, семейный, мультфильм
Продолжительность: 01:12:31
Перевод: Профессиональный (полное дублирование)
Режиссер: Джон Х. Уильямс
В ролях: Лиза Мартиросова, Вероника Саркисова, Дмитрий Курта
Описание: Продолжение анимационной комедии 2008 года о космических приключениях мартышек. На этот раз к звездолетной обезьяньей команде, состоящей из Хэма, Луны и Титана, присоединяется новичок Комет, мечтающий стать настоящим космическим шимпанзе. Он отправляется на планету Мангор, где знакомится с инопланетянином Киловаттом. Когда злодей Зартог пытается захватить власть, наступает время для Комета проявить себя. Разумеется, не без помощи новых друзей
Копипаст
автор рипа slach
Качество: HDTV
Формат: TS
Формат 3D: Half SideBySide / Горизонтальная анаморфная стереопара
Видео кодек: h.264
Аудио кодек: AC3
Видео: MPEG4 Video (H264) 1920x1080 25.00fps 12.8 Mbps
Аудио: Russian: Dolby AC3 48000Hz 2ch 448 Kbps - Русский Дубляж
Формат 3d: Anamorph SideBySide
Порядок ракурсов: Параллельная пара

Скриншоты




me

Format : MPEG-TS
File size : 7.05 GiB
Duration : 1h 12mn
Overall bit rate : 13.9 Mbps
Maximum Overall bit rate : 35.5 Mbps
Video
ID : 4113 (0x1011)
Menu ID : 1 (0x1)
Format : AVC
Format/Info : Advanced Video Codec
Format profile : Main@L4.0
Format settings, CABAC : Yes
Format settings, ReFrames : 3 frames
Codec ID : 27
Duration : 1h 12mn
Bit rate mode : Variable
Bit rate : 12.8 Mbps
Maximum bit rate : 40.0 Mbps
Width : 1 920 pixels
Height : 1 080 pixels
Display aspect ratio : 16:9
Frame rate : 25.000 fps
Standard : Component
Color space : YUV
Chroma subsampling : 4:2:0
Bit depth : 8 bits
Scan type : Interlaced
Scan order : Top Field First
Bits/(Pixel*Frame) : 0.246
Stream size : 6.47 GiB (92%)
Color primaries : BT.709-5, BT.1361, IEC 61966-2-4, SMPTE RP177
Transfer characteristics : BT.709-5, BT.1361
Matrix coefficients : BT.709-5, BT.1361, IEC 61966-2-4 709, SMPTE RP177
Audio
ID : 4352 (0x1100)
Menu ID : 1 (0x1)
Format : AC-3
Format/Info : Audio Coding 3
Mode extension : CM (complete main)
Codec ID : 129
Duration : 1h 12mn
Bit rate mode : Constant
Bit rate : 448 Kbps
Channel(s) : 2 channels
Channel positions : Front: L R
Sampling rate : 48.0 KHz
Bit depth : 16 bits
Video delay : 13ms
Stream size : 232 MiB (3%)
Language : Russian
Остальные раздачи этого фильма (3)
Благодарности релизеру (1)

Торрент:

Статус:

Размер:

Зарегистрирован   [ 2011-02-09 16:55 ]

проверено

7.05 GB